<?xml version="1.0" standalone="no"?>
<!DOCTYPE svg PUBLIC "-//W3C//DTD SVG 1.1//EN" "http://www.w3.org/Graphics/SVG/1.1/DTD/svg11.dtd" >
<svg xmlns="http://www.w3.org/2000/svg">
<metadata></metadata>
<defs>
<font id="magistralcregular" horiz-adv-x="1366" >
<font-face units-per-em="2048" ascent="1638" descent="-410" />
<missing-glyph horiz-adv-x="467" />
<glyph horiz-adv-x="0" />
<glyph horiz-adv-x="0" />
<glyph unicode="&#xd;" horiz-adv-x="467" />
<glyph horiz-adv-x="0" />
<glyph unicode=" "  horiz-adv-x="467" />
<glyph unicode="&#x09;" horiz-adv-x="467" />
<glyph unicode="&#xa0;" horiz-adv-x="467" />
<glyph unicode="!" horiz-adv-x="389" d="M140 0h109v155h-109v-155zM140 318h109v1087h-109v-1087z" />
<glyph unicode="&#x22;" horiz-adv-x="525" d="M100 1030h109v375h-109v-375zM318 1030h107v375h-107v-375z" />
<glyph unicode="#" horiz-adv-x="1605" d="M60 391h281l-157 -391h105l157 391h454l-157 -391h104l157 391h281l38 95h-281l184 456h281l38 94h-281l149 369h-105l-148 -369h-453l148 369h-104l-149 -369h-281l-38 -94h281l-185 -456h-281zM484 486l184 456h454l-185 -456h-453z" />
<glyph unicode="$" horiz-adv-x="1304" d="M100 1090q0 -52 9.5 -105.5t47.5 -99.5q28 -34 66 -55.5t78 -36.5l305 -115v-584h-474v-94h474v-136h89v136h164q65 0 128 8t120 57q67 56 82 127t15 135q0 58 -12 114.5t-66 108.5q-23 19 -47.5 36.5t-49 30.5t-43.5 20t-27 12l-264 100v561h441v95h-441v137h-89v-137 h-198q-67 0 -127.5 -15t-113.5 -80q-46 -58 -56.5 -117t-10.5 -103zM213 1086q0 12 1 33t3.5 44t11 45t20.5 41q14 17 48 39t98 22h211v-527l-288 108q-37 14 -57 37.5t-31 50t-14 54.5t-3 53zM695 94v550l253 -96q28 -12 54 -29t46 -44t32 -66.5t12 -95.5q0 -37 -7 -77.5 t-35 -74.5q-18 -23 -55.5 -45t-99.5 -22h-200z" />
<glyph unicode="%" d="M100 1082q0 -32 2 -69.5t10.5 -73t23.5 -70t40 -61.5q23 -22 49 -34t51 -17.5t49 -7.5t41 -2q15 0 39 2t49 7.5t51.5 18t48.5 33.5q26 27 41.5 61.5t23 70t9.5 73t2 69.5t-2 69t-9.5 73t-23 70.5t-41.5 59.5q-23 23 -49 35t-51 18t-49 8t-39 2q-16 0 -40.5 -2t-49.5 -8 t-51 -18t-49 -35q-26 -26 -40.5 -60t-23 -70t-10.5 -73t-2 -69zM201 1082q0 98 12.5 140t27.5 61q29 34 61.5 43t63.5 9q30 0 63 -9.5t61 -42.5q14 -18 27 -60.5t13 -140.5t-13 -140t-27 -61q-28 -34 -61.5 -43t-62.5 -9q-31 0 -64 9t-61 43q-14 18 -27 60.5t-13 140.5z M321 0h95l638 1405h-95zM737 323q0 -32 2 -69t10 -73.5t23 -70.5t40 -60q23 -23 49 -34.5t51 -17.5t49.5 -8t40.5 -2q15 0 39 2t49.5 8t51.5 18t48 34q26 26 41.5 60t23 70.5t9.5 73.5t2 69q0 33 -2 69.5t-9.5 73t-23 70.5t-41.5 60q-23 22 -48.5 34t-51 18.5t-49.5 8.5 t-39 2q-16 0 -40.5 -2t-49.5 -8.5t-51 -18.5t-49 -34q-26 -27 -40.5 -60.5t-22.5 -70t-10 -73.5t-2 -69zM837 323q0 52 6 106.5t38 94.5q28 37 59 44.5t62 7.5q30 0 61 -8t59 -44q32 -40 38 -94.5t6 -106.5t-6 -106t-38 -95q-28 -36 -59 -43.5t-61 -7.5q-31 0 -62 7.5 t-59 43.5q-32 41 -38 95t-6 106z" />
<glyph unicode="&#x26;" horiz-adv-x="1268" d="M100 383q0 -68 11 -145t65 -144q31 -36 64 -55t68 -28t69.5 -10t66.5 -1h417h28q17 0 36 3t34.5 10t28.5 21q10 10 17.5 35t7.5 84v496h236v94h-772q-58 0 -116 18t-92 53q-23 25 -34 54t-15.5 60t-5.5 60t-1 54q0 19 1 48.5t5.5 60.5t17 60.5t36.5 50.5q35 33 82 40.5 t87 7.5h581v95h-600q-90 0 -147 -24.5t-92 -57.5q-28 -30 -45 -67.5t-26 -77.5t-11 -77.5t-2 -66.5q0 -62 11 -128.5t48 -118.5q34 -50 74 -65t66 -19v-4q-50 -10 -91 -35.5t-64 -59.5q-28 -40 -36 -98t-8 -123zM213 364q0 66 3 113t21 81q6 11 19 27.5t33 29.5t49.5 23.5 t69.5 10.5h509v-488q0 -10 -2 -27t-11 -27q-10 -10 -34.5 -11.5t-42.5 -1.5h-385q-25 0 -50.5 1t-52 9.5t-50.5 24t-42 43.5q-27 41 -30.5 92.5t-3.5 99.5z" />
<glyph unicode="'" horiz-adv-x="308" d="M100 1030h109v375h-109v-375z" />
<glyph unicode="(" horiz-adv-x="649" d="M140 297q0 -78 3.5 -140.5t15.5 -118.5q15 -68 47.5 -127.5t92.5 -109.5q48 -40 120.5 -73t170.5 -37v92q-62 4 -110.5 23.5t-84 44.5t-60 52.5t-38.5 52.5q-40 68 -48 146t-8 143v614q0 65 8 143t48 146q14 24 38.5 52t60 53.5t84 44t110.5 23.5v92q-82 -6 -158.5 -34.5 t-132.5 -74.5q-102 -84 -138 -224q-16 -71 -18.5 -142t-2.5 -131v-510z" />
<glyph unicode=")" horiz-adv-x="649" d="M60 -217v-92q98 4 170.5 37t120.5 73q60 50 92 109.5t49 127.5q12 56 15 118.5t3 140.5v510q0 59 -2 130.5t-18 142.5q-36 140 -139 224q-56 46 -132.5 74.5t-158.5 34.5v-92q62 -4 110.5 -23t84.5 -44.5t60 -53.5t38 -52q40 -69 48.5 -147t8.5 -142v-614 q0 -65 -8.5 -143t-48.5 -146q-14 -25 -38 -52.5t-60 -52.5t-84.5 -44.5t-110.5 -23.5z" />
<glyph unicode="*" horiz-adv-x="1019" d="M100 766l42 -71l325 188v-377h85v377l325 -188l42 71l-325 190l325 188l-42 72l-325 -188v377h-85v-377l-325 188l-42 -72l325 -188z" />
<glyph unicode="+" horiz-adv-x="1135" d="M140 574h374v-373h108v373h374v96h-374v374h-108v-374h-374v-96z" />
<glyph unicode="," horiz-adv-x="389" d="M0 -115l96 -57l193 323l-96 58z" />
<glyph unicode="-" horiz-adv-x="802" d="M100 486h603v116h-603v-116z" />
<glyph unicode="." horiz-adv-x="320" d="M100 0h120v174h-120v-174z" />
<glyph unicode="/" horiz-adv-x="938" d="M-20 -327h100l879 1813h-100z" />
<glyph unicode="0" horiz-adv-x="1227" d="M100 469q0 -46 6.5 -99.5t24.5 -108t52 -106t90 -88.5q45 -31 87 -46t84 -21t84 -6h86h87t84 6t84 21t87 46q55 38 89.5 89t52.5 105.5t24 108t6 99.5v498q0 73 -15 128.5t-36.5 97.5t-45.5 70t-43 45q-42 39 -88.5 61t-93.5 32t-95.5 13t-96.5 3t-96.5 -3t-95.5 -13 t-93 -32t-88 -61q-20 -17 -44.5 -45t-45.5 -70t-36 -97.5t-15 -128.5v-498zM209 508v429q0 24 3 63.5t16 82.5t39 87t72 79q36 26 82 40.5t88.5 22t72 8.5t32.5 1q4 0 33 -1t71 -8.5t88.5 -22.5t82.5 -40q46 -35 72.5 -79t39 -87t15.5 -82.5t3 -63.5v-429q0 -81 -10.5 -164 t-71.5 -151q-32 -36 -71 -57t-81 -31.5t-86 -12.5t-87 -2q-42 0 -84 2t-84 12.5t-81.5 31.5t-71.5 57q-60 69 -71 151.5t-11 163.5z" />
<glyph unicode="1" horiz-adv-x="419" d="M-20 1308h142q8 0 20.5 -3t20.5 -16q4 -10 6 -30t2 -31v-1228h108v1270q0 27 -5 56.5t-31 52.5q-16 14 -43.5 20t-50.5 6h-169v-97z" />
<glyph unicode="2" horiz-adv-x="1174" d="M100 96q0 -12 2 -28t12 -30.5t31.5 -26t59.5 -11.5h789v96h-763q-4 0 -11 2t-7 15q0 6 10 15.5t14 11.5l678 538q12 10 44.5 38.5t53.5 62.5q41 58 51 126t10 133q0 26 -2 63t-9.5 78t-23.5 81t-45 71q-27 26 -56 41t-61 22t-63 9t-61 2h-548v-97h557q75 0 111 -21 t52 -42q20 -29 28 -77t8 -136q0 -56 -4.5 -96.5t-18 -71.5t-33.5 -55t-50 -49l-700 -553q-34 -29 -44.5 -56t-10.5 -55z" />
<glyph unicode="3" horiz-adv-x="1131" d="M100 0h637q56 0 113 13t104 65q26 31 40.5 67.5t23 76t11.5 78.5t3 73q0 25 -2 58t-9.5 69t-21 71t-38.5 63q-17 23 -48.5 42t-77.5 25v4q46 4 78.5 24t49.5 41q35 42 47.5 109t12.5 151q0 98 -13.5 165t-48.5 113q-26 37 -57 56t-62.5 28t-62 11t-57.5 2h-590v-97h609 q30 0 64 -9.5t62 -48.5q35 -46 39.5 -107t4.5 -113q0 -58 -7 -118.5t-43 -101.5q-24 -26 -68 -40.5t-102 -14.5h-555v-96h565q48 0 88 -14.5t64 -35.5q24 -25 38.5 -58.5t20 -69t6.5 -69t1 -54.5q0 -18 -1 -49.5t-6.5 -64.5t-21 -64t-41.5 -52q-33 -24 -80 -28t-97 -4h-572 v-96z" />
<glyph unicode="4" horiz-adv-x="1224" d="M40 393q0 -28 12.5 -51.5t31.5 -38.5q25 -18 56.5 -21t54.5 -3h714v-279h108v279h147v96h-147v954q0 28 -4 42t-9 24q-20 26 -65 26q-50 0 -80 -25t-51 -48l-718 -848q-12 -14 -31 -42.5t-19 -64.5zM149 402q0 12 29 48l703 837q6 6 11 11.5t10 5.5q7 0 7 -6v-923h-718 q-12 0 -27 3t-15 24z" />
<glyph unicode="5" horiz-adv-x="1145" d="M100 0h635q52 0 109.5 11.5t107.5 59.5q32 30 49.5 70.5t28 86t13.5 92t3 86.5q0 30 -1 66t-8 74t-22 74.5t-42 65.5q-50 58 -107.5 70t-108.5 12h-414q-40 0 -69 15.5t-43 35.5q-11 18 -15.5 45t-4.5 65v306q0 15 3 32.5t8 25.5q4 5 18.5 10t24.5 5h727v97h-745 q-27 0 -54.5 -6t-52.5 -32q-18 -18 -28 -47t-10 -60v-371q0 -12 2.5 -32t9.5 -45t22 -50t42 -46q42 -32 100.5 -38t100.5 -6h380q51 0 85.5 -21t50.5 -45q11 -18 24.5 -58t13.5 -129q0 -15 -1 -46.5t-4 -65.5t-12 -69t-23 -60q-12 -22 -48.5 -52t-105.5 -30h-639v-96z" />
<glyph unicode="6" horiz-adv-x="1143" d="M100 383q0 -44 5.5 -90t19 -88t40 -80.5t68.5 -66.5q56 -38 117.5 -48t111.5 -10h204q44 0 89.5 5t86.5 21t77.5 44t64.5 74q42 69 51 145.5t9 137.5q0 37 -3 80t-13.5 87t-33.5 86t-61 79q-65 55 -129.5 67.5t-127.5 12.5h-467v213q0 57 17 106.5t47 82.5 q45 46 97.5 56.5t89.5 10.5h515v97h-538q-48 0 -103 -10t-110 -52q-19 -16 -41 -40t-40.5 -60.5t-30.5 -84.5t-12 -112v-663zM209 358v385h442q46 0 104.5 -11.5t109.5 -63.5q25 -26 37.5 -57t19.5 -62.5t8 -61t1 -54.5q0 -28 -2 -62t-9 -69t-19 -68t-30 -58 q-22 -28 -50 -43.5t-55 -24t-53.5 -10.5t-46.5 -2h-208q-79 0 -125 22t-68 47q-20 22 -31.5 51t-17 56t-6.5 50t-1 36z" />
<glyph unicode="7" horiz-adv-x="932" d="M-40 1308h863q12 0 23 -5t11 -26q0 -4 -3 -19t-21 -44l-764 -1214h122l742 1172q8 12 24 46t16 80q0 37 -11.5 59t-31 31.5t-42.5 13t-45 3.5h-883v-97z" />
<glyph unicode="8" horiz-adv-x="1183" d="M100 362q0 -65 8.5 -128t54.5 -121q57 -73 131 -93t143 -20h310q70 0 143 20t131 93q46 58 54.5 121t8.5 128q0 32 -2 70.5t-11.5 79t-25 77.5t-43.5 64q-27 24 -61 38t-66 18v3q40 10 67 29t44 38q24 27 37 59.5t19 64.5t7 62.5t1 53.5q0 29 -2 70t-11 85t-27 86t-49 73 q-28 26 -63 41t-71 22t-70.5 8t-57.5 1h-213q-24 0 -58.5 -1t-70.5 -8t-71 -22.5t-64 -40.5q-30 -31 -47.5 -73t-27 -86t-11.5 -85t-2 -70q0 -24 1 -54t7.5 -62t19 -65t37.5 -59q16 -18 43 -37.5t67 -29.5v-3q-33 -4 -66.5 -18.5t-60.5 -37.5q-28 -27 -44 -64t-25 -77.5 t-11 -79.5t-2 -70zM213 381q0 16 1 47.5t9 65.5t24 68t44 56q28 23 71.5 33.5t83.5 10.5h293q40 0 83 -11t71 -33t44.5 -56t23 -68t8.5 -65t2 -48t-2 -46.5t-7 -59.5t-14 -59.5t-25 -48.5q-14 -18 -54 -44.5t-122 -26.5h-310q-82 0 -122 26.5t-54 44.5q-16 19 -25.5 48.5 t-14 59.5t-6.5 59.5t-2 46.5zM247 1023q0 20 2 53.5t9 68.5t21 67.5t39 53.5q38 32 85 37t89 5h201q42 0 89 -5t85 -37q25 -22 38.5 -54t20.5 -67t9 -68t2 -54q0 -84 -9 -125t-24 -63q-18 -27 -42.5 -41.5t-49.5 -23t-51 -10t-47 -1.5h-245q-19 0 -45 1.5t-51.5 10t-49.5 23 t-42 41.5q-15 23 -24.5 63.5t-9.5 124.5z" />
<glyph unicode="9" horiz-adv-x="1143" d="M100 990q0 -38 2 -79.5t11 -81.5t26.5 -78.5t44.5 -70.5q29 -32 84 -65t149 -33h518v-163q0 -24 -2 -57t-9 -69t-20 -70t-37 -58q-46 -46 -108 -57.5t-113 -11.5h-464v-96h502q34 0 76.5 5t84.5 21t82 49.5t69 89.5q32 64 40 140t8 153v574q0 16 -2 44.5t-8 63t-18 71 t-32 66.5q-30 44 -72.5 70t-88.5 38.5t-91.5 16t-80.5 3.5h-155q-71 0 -146 -12t-137 -64q-41 -34 -63 -79.5t-32.5 -91.5t-14 -90.5t-3.5 -77.5zM213 992q0 60 13 128t59 119q23 24 49 38t51 20.5t47 8.5t39 2h199q44 0 100.5 -10.5t100.5 -56.5t54 -106.5t10 -104.5v-352 h-435q-52 0 -111.5 7.5t-105.5 53.5q-40 40 -55 111t-15 142z" />
<glyph unicode=":" horiz-adv-x="360" d="M121 0h120v163h-120v-163zM121 902h120v161h-120v-161z" />
<glyph unicode=";" horiz-adv-x="408" d="M0 -115l96 -57l193 323l-96 58zM169 902h120v161h-120v-161z" />
<glyph unicode="&#x3c;" horiz-adv-x="1137" d="M140 664l858 -431v108l-665 323l665 324v108z" />
<glyph unicode="=" horiz-adv-x="1135" d="M140 466h856v96h-856v-96zM140 682h856v97h-856v-97z" />
<glyph unicode="&#x3e;" horiz-adv-x="1137" d="M140 233l858 431l-858 432v-108l665 -324l-665 -323v-108z" />
<glyph unicode="?" horiz-adv-x="876" d="M20 1308h449q37 0 85 -8.5t82 -50.5q18 -20 27 -46.5t14 -53.5t6 -52t1 -45q0 -73 -23 -128t-107 -105l-185 -109q-57 -34 -83.5 -60t-32.5 -36q-27 -36 -32.5 -73t-5.5 -72v-151h108v172q0 20 6 38t16 34q14 19 34.5 34.5t34.5 23.5l197 117q38 23 71.5 48t58.5 62.5 t40.5 90t15.5 127.5q0 60 -13.5 130.5t-69.5 129.5q-52 54 -111 67t-119 13h-464v-97zM215 0h108v155h-108v-155z" />
<glyph unicode="@" horiz-adv-x="1952" d="M121 574q0 -206 24 -371t108 -283q30 -42 74 -81.5t104.5 -69.5t139 -48t176.5 -18h607v94h-582q-44 0 -115 8.5t-144 41t-139.5 100t-100.5 185.5q-11 42 -19.5 97.5t-12.5 115t-6 119.5t-2 112q0 98 4 169.5t10 123.5t14 87.5t16 58.5q37 102 100 162t137 90 t152.5 36.5t141.5 6.5h385q61 0 126.5 -6.5t127.5 -30.5t116.5 -69.5t92.5 -123.5q40 -80 52 -182.5t12 -231.5q0 -80 -1 -138.5t-4 -101.5t-9 -74t-15 -55q-30 -86 -80 -114t-100 -28q-65 0 -97.5 30t-48 72t-17 86t-1.5 73v473q0 32 -1 63.5t-36 64.5q-30 31 -63 36.5 t-71 5.5h-261q-40 0 -85 -7.5t-90 -28.5t-85.5 -57.5t-70.5 -94.5q-36 -74 -45 -156.5t-9 -162.5q0 -35 1 -75t7 -83t18 -86t34 -84q50 -90 131.5 -127t189.5 -37q50 0 101 8t98.5 28.5t89 55t70.5 87.5q14 -65 47 -101t70.5 -52.5t70 -21t45.5 -4.5q90 0 156.5 33 t112.5 126q40 82 50.5 189t10.5 241t-14.5 262.5t-79.5 242.5q-54 93 -127.5 143.5t-150 74.5t-150.5 28.5t-129 4.5h-363q-74 0 -150.5 -6t-149.5 -27.5t-141.5 -63.5t-124.5 -111q-46 -58 -73 -124t-40.5 -141t-16 -164.5t-2.5 -193.5zM642 556q0 32 2 71t8.5 78.5 t15 75.5t23.5 64q22 42 53 67t67 37t73 15t72 3h206q16 0 34 -3t30 -16q17 -20 17 -48v-356q0 -14 -1 -46t-8.5 -71.5t-20.5 -82.5t-37 -77q-26 -39 -58 -61t-65.5 -33.5t-68 -14.5t-67.5 -3q-38 0 -75 4t-70 20t-60.5 47t-45.5 85q-5 19 -14.5 74t-9.5 171z" />
<glyph unicode="A" horiz-adv-x="1348" d="M-20 0l537 1272q12 28 26.5 55t32.5 48t42 33.5t56 12.5q62 0 97.5 -46t59.5 -103l538 -1272h-117l-170 410h-815l-171 -410h-116zM309 506h731l-307 735q-10 22 -23 51t-36 29q-22 0 -35 -29.5t-23 -50.5z" />
<glyph unicode="B" d="M140 180q0 -32 7.5 -68t34.5 -66q40 -40 90.5 -43t89.5 -3h619q54 0 102.5 13t98.5 69q32 37 49.5 73t25 73t8.5 75t1 76q0 67 -6 132t-52 119q-19 25 -55.5 48t-89.5 29v7q39 4 70 22.5t60 52.5q40 52 49.5 112t9.5 125q0 34 -2.5 74t-12 80t-26 78.5t-47.5 68.5 q-30 32 -82 55t-128 23h-649q-33 0 -64.5 -8t-60.5 -41q-19 -24 -29.5 -60t-10.5 -76v-1040zM249 205v454h720q44 0 84.5 -22.5t60.5 -52.5q10 -16 17 -42.5t11 -55t6.5 -57.5t2.5 -52q0 -24 -2.5 -53t-7.5 -59t-13 -57.5t-23 -44.5q-17 -27 -42 -39.5t-50 -19t-51.5 -7.5 t-46.5 -1h-560q-25 0 -51.5 3t-40.5 20q-6 7 -10 24.5t-4 61.5zM249 755v473q0 12 5 33.5t15 31.5q11 13 27.5 14t32.5 1h608q28 0 64.5 -5t70.5 -37q8 -8 19 -23t21 -41t17 -66t7 -96q0 -23 -2 -53t-6 -62t-13.5 -61t-22.5 -47q-35 -44 -86.5 -53t-98.5 -9h-658z" />
<glyph unicode="C" horiz-adv-x="1281" d="M100 682q0 -178 33.5 -305.5t123.5 -217.5q24 -25 60 -52t87.5 -51t118.5 -40t153 -16h567v96h-544q-25 0 -73 3t-103.5 20t-112.5 51.5t-101 96.5q-35 48 -53.5 103t-27.5 110.5t-10 106.5t-1 93q0 58 2.5 121.5t13 124t31.5 117.5t57 103q45 55 98.5 87.5t109 49.5 t107.5 21t92 4h492v97h-538q-84 0 -151 -16t-120 -40t-93.5 -54.5t-66.5 -59.5q-52 -54 -81.5 -120.5t-45 -138.5t-20 -146.5t-4.5 -147.5z" />
<glyph unicode="D" horiz-adv-x="1460" d="M140 155q0 -33 8.5 -64t42.5 -57q30 -24 70 -29t76 -5h498q144 0 237.5 49t147.5 120q48 59 76.5 131.5t42 145.5t18 145.5t4.5 134.5q0 60 -3.5 126.5t-19 134t-48 132.5t-88.5 124q-55 55 -115.5 88.5t-115 49t-99.5 20t-73 4.5h-478q-28 0 -64.5 -9t-67.5 -44 q-34 -36 -41.5 -74.5t-7.5 -73.5v-1049zM249 184v1048q0 22 8 37.5t18 25.5q14 9 29 11t27 2h474q100 0 186.5 -38t144.5 -112q36 -46 58 -96.5t33.5 -104t14.5 -110t3 -112.5q0 -151 -17.5 -261t-59.5 -191q-34 -62 -77 -99t-89 -56t-90.5 -25.5t-80.5 -6.5h-504 q-9 0 -30.5 2t-33.5 15q-14 13 -14 71z" />
<glyph unicode="E" horiz-adv-x="1243" d="M140 195q0 -40 6.5 -80.5t37.5 -72.5q35 -34 73 -38t74 -4h833v96h-804q-18 0 -49.5 4t-41.5 15q-10 9 -15 26.5t-5 29.5v499h887v96h-887v452q0 10 3 33t18 38q10 9 33.5 14t39.5 5h813v97h-829q-40 0 -78 -8t-69 -45q-8 -9 -24 -40t-16 -94v-1023z" />
<glyph unicode="F" horiz-adv-x="1151" d="M140 0h109v666h630v96h-630v490q0 10 2 22.5t10 22.5q8 9 17 10t19 1h815v97h-807q-35 0 -66.5 -6t-60.5 -36q-15 -15 -26.5 -40t-11.5 -61v-1262z" />
<glyph unicode="G" horiz-adv-x="1412" d="M100 695q0 -75 5.5 -156t25.5 -160.5t58.5 -150.5t107.5 -126q58 -46 136.5 -74t170.5 -28h544q28 0 66 8t60 30q28 27 33 63.5t5 55.5v487h-108v-460q0 -15 -3.5 -34.5t-14.5 -30.5q-14 -16 -32 -19.5t-34 -3.5h-518q-62 0 -113.5 17t-91 45t-70 64.5t-48.5 76.5 q-6 12 -16 39.5t-20 75.5t-18 119t-8 170q0 38 1.5 89t9 105.5t19.5 106t34 94.5q46 92 140 151t228 59h632v97h-603q-65 0 -153 -13t-174 -65q-84 -50 -134 -122.5t-76 -156t-33.5 -174.5t-7.5 -179z" />
<glyph unicode="H" horiz-adv-x="1408" d="M140 0h109v666h911v-666h108v1405h-108v-643h-911v643h-109v-1405z" />
<glyph unicode="I" horiz-adv-x="389" d="M140 0h109v1405h-109v-1405z" />
<glyph unicode="J" horiz-adv-x="785" d="M-40 0h279q111 0 185 43t114 85q52 56 80 136.5t28 206.5v934h-108v-936q0 -76 -17 -155t-75 -136q-30 -28 -85.5 -55t-143.5 -27h-257v-96z" />
<glyph unicode="K" horiz-adv-x="1256" d="M140 0h109v1405h-109v-1405zM327 722q0 -42 34 -89t89 -89l704 -544h162l-776 598q-34 26 -69.5 57t-35.5 65q0 16 10.5 31t24.5 28.5t29 24t25 19.5l719 582h-157l-659 -530q-34 -28 -67 -69.5t-33 -83.5z" />
<glyph unicode="L" horiz-adv-x="1089" d="M140 128q0 -22 6.5 -49t31.5 -49q27 -22 63 -26t52 -4h837v96h-805q-13 0 -30.5 3t-29.5 14t-14 25.5t-2 26.5v1240h-109v-1277z" />
<glyph unicode="M" horiz-adv-x="1869" d="M140 0h109v1289q0 22 10 29t18 7q10 0 22 -14t17 -26l477 -1149q28 -64 58 -108t84 -44t84.5 44.5t58.5 107.5l477 1149q4 12 16.5 26t21.5 14q8 0 18.5 -7.5t10.5 -28.5v-1289h108v1289q0 58 -36 95t-97 37q-59 0 -91.5 -37t-59.5 -101l-477 -1145q-4 -12 -10.5 -28 t-23.5 -16q-16 0 -22.5 16t-10.5 28l-477 1145q-28 65 -60 101.5t-92 36.5q-59 0 -96 -37t-37 -95v-1289z" />
<glyph unicode="N" horiz-adv-x="1469" d="M140 0h109v1266q0 27 13 33.5t17 6.5q16 0 28 -11.5t18 -22.5l734 -1186q35 -54 64 -78t77 -24q65 0 97 43.5t32 112.5v1265h-109v-1271q0 -10 -3 -23t-22 -13q-18 0 -27.5 12t-16.5 24l-739 1193q-23 36 -52 65t-87 29q-9 0 -31 -3t-45 -16t-40 -42t-17 -81v-1279z" />
<glyph unicode="O" horiz-adv-x="1561" d="M100 703q0 -60 4.5 -134.5t20 -151t49 -148.5t93.5 -133q53 -54 119 -85t134 -46t135 -18t126 -3q58 0 125 3t135.5 18t134 46t119.5 85q59 60 92.5 132.5t49.5 149t20 150.5t4 135q0 59 -4 133.5t-20 150.5t-49.5 148.5t-92.5 132.5q-54 54 -119.5 84.5t-134 45.5 t-135.5 19t-125 4t-125.5 -4t-135.5 -19t-133.5 -45t-119.5 -85q-60 -60 -93.5 -132.5t-49 -148.5t-20 -150.5t-4.5 -133.5zM217 703q0 59 1.5 125.5t14 129.5t36.5 123.5t68 108.5q44 50 100.5 77.5t115.5 40.5t118 15t110 2q50 0 109.5 -2t118.5 -15t114 -40t101 -78 q44 -48 68 -108.5t36.5 -123.5t14.5 -129.5t2 -125.5q0 -60 -2 -126.5t-14.5 -130t-36.5 -123.5t-68 -108q-46 -50 -101 -77t-114 -40.5t-118.5 -15.5t-109.5 -2t-109.5 2t-118.5 15.5t-115.5 40.5t-100.5 77q-44 48 -68 108t-36.5 123.5t-14 130t-1.5 126.5z" />
<glyph unicode="P" d="M140 0h109v574h712q52 0 102.5 16t87.5 44q38 30 61 70.5t34.5 85.5t15.5 93t4 90q0 138 -23 222t-83 136q-59 52 -129 63t-138 11h-580q-8 0 -24 -1t-36 -5t-40 -11t-35 -21q-28 -28 -33 -64.5t-5 -63.5v-1239zM249 670v552q0 36 10 61t70 25h575q76 0 121 -20t67 -43 q19 -25 31.5 -58t18.5 -68t7.5 -67.5t1.5 -49.5q0 -20 -1.5 -55.5t-6.5 -74.5t-16 -76t-31 -61q-18 -23 -63 -44t-133 -21h-651z" />
<glyph unicode="Q" horiz-adv-x="1567" d="M100 703q0 -58 4.5 -131.5t20 -152t49 -152.5t93.5 -131q51 -50 119 -77t138 -40t137 -16t122 -3h692v96h-236v6q50 28 81.5 63.5t52.5 67.5q30 50 48 116.5t27 131.5t11 124t2 98q0 122 -13 213t-35 158.5t-51 114t-64 79.5q-53 54 -118.5 84.5t-134 45.5t-136.5 19 t-128 4q-58 0 -125.5 -4t-135.5 -19t-133.5 -45t-119.5 -85q-60 -60 -93.5 -132.5t-49 -148.5t-20 -150.5t-4.5 -133.5zM217 703q0 61 1.5 126.5t14 128.5t36.5 122.5t68 109.5q42 48 93.5 74.5t108.5 40.5t118 17t124 3q62 0 123 -3t118.5 -17t108.5 -40t93 -75 q44 -50 68 -109.5t36.5 -122.5t14.5 -128.5t2 -126.5q0 -56 -2 -122.5t-14.5 -133t-36.5 -126.5t-68 -106q-40 -43 -93 -66t-111.5 -35t-120.5 -15t-118 -3q-58 0 -119.5 3t-120.5 15t-111.5 35t-92.5 66q-44 44 -68 106t-36.5 128t-14 133t-1.5 121z" />
<glyph unicode="R" horiz-adv-x="1406" d="M140 0h109v1214q0 18 5 37t23 36q18 15 37 18t35 3h574q12 0 32 -1t43 -5.5t47.5 -14.5t44.5 -29q26 -24 39 -60t19 -74t7 -73.5t1 -58.5q0 -111 -11 -166.5t-27 -82.5q-16 -29 -54 -54t-91 -25h-435q-23 0 -35.5 -12t-12.5 -34v-32q0 -18 7 -26t31 -30l620 -530h158 l-657 558v10h310q33 0 66.5 5t67 19t63.5 38.5t54 60.5q44 70 53 149t9 144q0 78 -11 158t-51 143q-26 38 -59 62t-69 36.5t-72.5 17t-65.5 4.5h-593q-40 0 -78 -8t-74 -41q-42 -38 -50.5 -78.5t-8.5 -87.5v-1190z" />
<glyph unicode="S" horiz-adv-x="1296" d="M100 1092q0 -58 13 -117.5t58 -109.5q28 -34 74 -60t98 -45l561 -192q57 -19 92.5 -45.5t53.5 -56t24 -62.5t6 -67q0 -74 -14 -120t-37.5 -73t-52 -37.5t-61.5 -10.5h-793v-96h782q26 0 56 3t59 12t56.5 27t52.5 50q26 34 40 75.5t20.5 78.5t7.5 64t1 31q0 52 -17.5 114 t-69.5 113q-36 35 -88.5 59t-115.5 45l-546 193q-50 18 -79.5 43t-44 53.5t-17 60.5t-2.5 66q0 36 4.5 84t37.5 82q26 29 67.5 41.5t79.5 12.5h724v97h-713q-84 0 -138.5 -22t-83.5 -48q-65 -54 -80 -121.5t-15 -121.5z" />
<glyph unicode="T" horiz-adv-x="1203" d="M-40 1308h588v-1308h109v1308h588v97h-1285v-97z" />
<glyph unicode="U" horiz-adv-x="1356" d="M140 437v968h109v-930q0 -32 1 -69t8 -75t22 -74.5t41 -65.5q33 -38 74.5 -60t89 -33.5t97.5 -14.5t96 -3t96.5 3t97.5 14.5t89.5 33.5t74.5 60q26 30 41 66t21.5 74t7.5 75.5t1 68.5v930h109v-968q0 -74 -19 -157t-81 -154q-46 -50 -104 -78t-118.5 -42t-117 -18 t-98.5 -4t-99.5 4t-117 18t-118 42t-102.5 78q-32 37 -51 76t-30 79t-15.5 80.5t-4.5 75.5z" />
<glyph unicode="V" horiz-adv-x="1220" d="M-40 1405l528 -1329q12 -34 30 -52t36 -27t34 -11t23 -2q51 0 81 32t41 60l527 1329h-122l-494 -1283q-8 -19 -17 -24.5t-16 -5.5q-8 0 -17.5 5t-17.5 25l-494 1283h-122z" />
<glyph unicode="W" horiz-adv-x="1806" d="M-40 1405l333 -1303q20 -75 56 -96.5t76 -21.5q37 0 61 12t40 30t25 41t15 46l305 1153q2 8 9 24t24 16q15 0 22 -16t9 -24l306 -1153q6 -23 14.5 -46t25 -41t40.5 -30t60 -12q40 0 76.5 22t55.5 96l333 1303h-109l-318 -1273q-2 -10 -9 -27t-25 -17q-10 0 -22.5 10.5 t-15.5 25.5l-301 1161q-6 19 -15.5 42t-25 44.5t-41 35.5t-60.5 14q-37 0 -62 -14t-41 -35.5t-25.5 -44.5t-15.5 -42l-300 -1161q-4 -15 -16.5 -25.5t-22.5 -10.5q-17 0 -24.5 17t-9.5 27l-316 1273h-111z" />
<glyph unicode="X" horiz-adv-x="1123" d="M-40 0h128l474 634l474 -634h128l-544 712l528 693h-129l-457 -614l-458 614h-128l528 -693z" />
<glyph unicode="Y" horiz-adv-x="1191" d="M-40 1405l582 -943v-462h109v462l581 943h-120l-516 -845l-516 845h-120z" />
<glyph unicode="Z" horiz-adv-x="1159" d="M20 113q0 -14 5 -33.5t20 -37.5t44.5 -30t75.5 -12h947v96h-953q-23 0 -23 25q0 19 19 42l937 1023q15 17 31.5 44.5t16.5 66.5q0 51 -37.5 79.5t-89.5 28.5h-944v-97h919q10 0 22.5 -5t12.5 -24q0 -10 -7 -27t-14 -26l-933 -1007q-20 -23 -34.5 -51t-14.5 -55z" />
<glyph unicode="[" horiz-adv-x="649" d="M140 -309h450v92h-349v1538h349v92h-450v-1722z" />
<glyph unicode="\" horiz-adv-x="938" d="M-20 1486l879 -1813h100l-879 1813h-100z" />
<glyph unicode="]" horiz-adv-x="649" d="M60 -217v-92h450v1722h-450v-92h350v-1538h-350z" />
<glyph unicode="^" horiz-adv-x="906" d="M60 1102l57 -70l295 259q7 6 17.5 11.5t24.5 5.5q13 0 23.5 -5.5t18.5 -11.5l295 -259l56 70l-315 269q-14 12 -33.5 23t-44.5 11q-27 0 -46 -11t-33 -23z" />
<glyph unicode="_" horiz-adv-x="1187" d="M100 0h988v117h-988v-117z" />
<glyph unicode="`" horiz-adv-x="429" d="M60 1325l247 -201l62 78l-247 201z" />
<glyph unicode="a" horiz-adv-x="1013" d="M60 329q0 -24 2.5 -61t12 -76t28 -78.5t52.5 -65.5q44 -34 95 -41t97 -7h410q28 0 62 4t58 26q27 25 31.5 57t4.5 53v637q0 48 -11 107.5t-53 105.5q-33 34 -83 53.5t-104 19.5h-522v-94h517q38 0 67 -13.5t44 -34.5q20 -24 30 -62t10 -64v-159h-461q-46 0 -100 -10 t-98 -46q-58 -48 -73.5 -117.5t-15.5 -133.5zM172 325q0 56 7 97.5t28 67.5q12 16 41 34t75 18h485v-400q0 -10 -1.5 -17.5t-11.5 -17.5t-23 -11.5t-23 -1.5h-430q-34 0 -61 13.5t-43 32.5q-29 34 -36 85.5t-7 99.5z" />
<glyph unicode="b" horiz-adv-x="1034" d="M100 167q0 -29 8.5 -68t42.5 -67q28 -22 73 -27t92 -5h228q44 0 92 6t96.5 24t93.5 52.5t80 91.5q24 43 37.5 88t20.5 90.5t9 87.5t2 77q0 43 -2 90.5t-9 95.5t-21 96t-39 90q-35 58 -80 92t-94.5 52.5t-99.5 24t-92 5.5h-333v342h-105v-1238zM205 176v793h325 q36 0 78.5 -5t81 -20t74 -46t57.5 -81q12 -28 20 -68t13 -85.5t7 -91.5t2 -84q0 -76 -8 -139.5t-36 -113.5t-66.5 -78.5t-79.5 -42.5t-81 -17t-71 -3h-242q-13 0 -33 3t-29 16q-10 11 -11 29.5t-1 33.5z" />
<glyph unicode="c" horiz-adv-x="954" d="M60 517q0 -118 16 -212t81 -171q46 -56 122 -95t190 -39h426v94h-374q-36 0 -81 5t-88 21t-81 48.5t-62 84.5q-10 22 -17.5 54t-11.5 67.5t-6 69t-2 60.5q0 19 1 52.5t4 69.5t6 70t10 57q25 96 101.5 156t205.5 60h371v94h-359q-127 0 -206.5 -35.5t-125.5 -81.5 q-42 -42 -66 -94.5t-35.5 -109t-15 -113.5t-3.5 -112z" />
<glyph unicode="d" horiz-adv-x="1029" d="M60 560q0 -89 8 -179t41 -166q30 -73 71.5 -115t90 -64t96 -29t87.5 -7h331q26 0 60 5t57 33q15 20 21 53t6 64v1250h-104v-342h-323q-44 0 -92 -4.5t-96.5 -22t-93 -48.5t-80.5 -82q-56 -83 -68 -170t-12 -176zM172 544q0 115 12.5 187t39.5 118q25 38 56 62t65 37 t68.5 17t63.5 4h348v-785q0 -15 -3 -39t-14 -34q-11 -12 -32 -14.5t-31 -2.5h-268q-32 0 -70.5 5t-77 22t-73 50.5t-53.5 87.5q-4 10 -9 29t-10.5 52t-8.5 82t-3 122z" />
<glyph unicode="e" horiz-adv-x="1036" d="M60 528q0 -118 12 -217.5t75 -180.5q30 -40 66 -66t73 -40t73 -19t68 -5h523v94h-523q-52 0 -92 17t-69 43t-48 59.5t-27 65.5q-12 43 -16 107q-3 52 -3 91v19h649q23 0 55.5 5t56.5 27q16 14 25 33t13 38t5 37.5t1 29.5q0 85 -21 144t-49 99.5t-56 62.5t-44 32 q-65 38 -140 48.5t-131 10.5q-80 0 -170.5 -16.5t-162.5 -77.5q-50 -42 -79.5 -95t-43 -111t-17 -118.5t-3.5 -116.5zM172 590q2 78 10.5 138.5t39.5 112.5q29 46 63 72t73.5 38t79 15t79.5 3q37 0 73 -2t72.5 -10.5t69 -27t61.5 -52.5q28 -32 50 -85t22 -131v-19 q0 -10 -4 -21.5t-13 -21t-27 -9.5h-649z" />
<glyph unicode="f" horiz-adv-x="531" d="M20 969h139v-969h104v969h287v94h-287q0 25 3 54t11 57t21 52t33 42q40 34 105.5 44.5t115.5 10.5v94q-37 0 -78 -3t-83 -14t-80 -29.5t-68 -47.5q-28 -28 -44.5 -61.5t-25 -68.5t-11.5 -69t-3 -61h-139v-94z" />
<glyph unicode="g" horiz-adv-x="1084" d="M60 558q0 -125 16 -232t68 -188q32 -48 70.5 -76t80.5 -42t86 -17t88 -3h412q-4 -46 -23 -96.5t-57 -83.5q-29 -25 -62.5 -38t-69 -20t-64.5 -8t-43 -1h-426v-94h426q24 0 67 3t91 15t95.5 36t84.5 65q54 64 70 155t16 189v755q0 34 -11.5 76.5t-51.5 72.5q-34 27 -77 32 t-86 5h-264q-100 0 -175.5 -20t-142.5 -87q-76 -77 -97 -174.5t-21 -223.5zM172 538q0 42 2 91t11.5 97.5t27.5 92.5t48 76q26 28 73 51t124 23h329q16 0 32 -3t32 -12q19 -14 24.5 -31t5.5 -40v-789h-417h-50t-55 6.5t-55 20t-51 42.5q-6 8 -19.5 28t-27 63t-24 111 t-10.5 173z" />
<glyph unicode="h" horiz-adv-x="1032" d="M100 0h105v969h399q44 0 89.5 -9.5t83.5 -53.5q36 -43 44 -98t8 -90v-718h104v707q0 80 -16.5 153t-75.5 128q-46 42 -106.5 58.5t-140.5 16.5h-389v342h-105v-1405z" />
<glyph unicode="i" horiz-adv-x="312" d="M100 1256h113v149h-113v-149zM104 0h105v1063h-105v-1063z" />
<glyph unicode="j" horiz-adv-x="517" d="M-20 -263v-95q29 -4 66 -4q40 0 82.5 6.5t85.5 21.5t79 43q40 32 64 68.5t36.5 73t16.5 71t4 60.5v1081h-105v-1061q0 -88 -21 -132t-62 -77q-19 -15 -41 -26.5t-50 -19.5t-67 -10q-19 -1 -41 -1t-47 1zM305 1256h112v149h-112v-149z" />
<glyph unicode="k" horiz-adv-x="921" d="M100 0h105v1405h-105v-1405zM283 550q0 -29 9 -53t23 -43t27 -33.5t24 -22.5l431 -398h145l-490 454q-23 19 -40 45.5t-17 54.5q0 13 7.5 34t28.5 42l462 433h-140l-385 -360q-41 -39 -63 -74t-22 -79z" />
<glyph unicode="l" horiz-adv-x="304" d="M100 0h105v1405h-105v-1405z" />
<glyph unicode="m" horiz-adv-x="1637" d="M100 0h105v895q0 15 1 31t11 26q9 11 23.5 14t28.5 3h497v-969h105v969h359q34 0 79 -7.5t80 -44.5q28 -32 36 -74t8 -79v-764h105v757q0 66 -16.5 131.5t-66.5 109.5q-42 38 -100 51.5t-123 13.5h-987q-23 0 -58.5 -8.5t-62.5 -49.5q-15 -26 -19.5 -58t-4.5 -62v-885z " />
<glyph unicode="n" horiz-adv-x="1038" d="M100 0h105v929q0 6 1 16.5t5 15.5q4 6 12 7t16 1h377q52 0 95.5 -11.5t77.5 -53.5q28 -35 37 -79t9 -113v-712h104v739q0 111 -29 166.5t-53 80.5q-49 48 -110 62.5t-136 14.5h-383q-24 0 -52.5 -5.5t-51.5 -34.5q-15 -22 -19.5 -48.5t-4.5 -49.5v-925z" />
<glyph unicode="o" horiz-adv-x="1172" d="M60 538q0 -172 40 -275.5t93 -153.5q44 -42 97 -66.5t107.5 -36.5t103.5 -15t85 -3t85 3t103.5 15t107.5 36.5t97 66.5q50 50 91.5 153.5t41.5 275.5q0 44 -4.5 99.5t-18 112.5t-40 112t-70.5 97q-40 39 -87 62t-98 35t-104.5 16t-103.5 4t-103.5 -4t-104.5 -16t-99 -35 t-86 -62q-44 -42 -70.5 -97t-40 -112t-18 -112.5t-4.5 -99.5zM172 528q0 35 1 82t9.5 96t25 95t49.5 82q30 34 71 53.5t86.5 29t89.5 12.5t82 3t82 -3t89.5 -12.5t86.5 -29t71 -53.5q33 -36 49.5 -82t25 -95t9.5 -96.5t1 -81.5q0 -32 -1 -76t-9.5 -91.5t-26 -94t-50.5 -82.5 q-32 -34 -71 -54.5t-83.5 -31t-88.5 -13.5t-84 -3t-84 3t-88.5 13.5t-83.5 31.5t-71 54q-35 36 -51.5 82.5t-25 94t-9.5 91.5t-1 76z" />
<glyph unicode="p" horiz-adv-x="1027" d="M100 -341h105v341h301q128 0 220.5 32.5t156.5 126.5q58 88 71 187.5t13 201.5q0 48 -2 99.5t-12.5 102.5t-34 100.5t-63.5 91.5q-41 42 -85 66t-87 36.5t-81 15.5t-64 3h-269q-23 0 -56 -4.5t-62 -26.5q-12 -10 -31.5 -34.5t-19.5 -66.5v-1272zM205 94v823q0 10 3 19.5 t12 19.5q6 3 15.5 8t17.5 5h307q72 0 145.5 -34.5t111.5 -120.5q18 -40 28 -105t10 -175q0 -104 -12 -184t-48 -135q-40 -62 -107.5 -91.5t-139.5 -29.5h-343z" />
<glyph unicode="q" horiz-adv-x="1036" d="M60 519q0 -40 2.5 -88t10 -99t24 -100.5t43.5 -91.5q31 -46 69 -73t77 -42t76.5 -20t68.5 -5h402v-341h104v1226q0 32 -2 65.5t-24 60.5q-9 14 -38.5 33t-85.5 19h-337q-113 0 -180 -35.5t-101 -77.5q-39 -46 -61 -103.5t-31.5 -117t-13 -113.5t-3.5 -97zM172 530 q0 31 1 67.5t5 74t11.5 73.5t19.5 65q34 93 101 126t163 33h282q13 0 27.5 -2t27.5 -11q14 -10 18.5 -24.5t4.5 -25.5v-812h-387q-73 0 -119 23t-73.5 53.5t-40 61.5t-16.5 49q-6 27 -11.5 59.5t-8.5 66t-4 65.5t-1 58z" />
<glyph unicode="r" horiz-adv-x="507" d="M100 0h105v674q0 65 9.5 123t44.5 98q44 50 102 62t103 12h64v94h-72q-109 0 -168.5 -27t-92.5 -59q-60 -58 -77.5 -127t-17.5 -151v-699z" />
<glyph unicode="s" horiz-adv-x="1011" d="M60 799q0 -44 12 -90.5t47 -86.5q7 -10 24.5 -25t45.5 -31t71 -32.5t104 -29.5l184 -42q58 -14 99 -24.5t71.5 -19t49.5 -19t31 -22.5q11 -11 25.5 -37.5t14.5 -72.5q0 -29 -6 -65.5t-21 -57.5q-15 -22 -46 -36t-78 -14h-610v-94h615q32 0 79 6t87 34q31 20 48.5 48.5 t28 58t13.5 61t3 59.5q0 51 -13.5 98t-63.5 87q-46 38 -116.5 58t-166.5 42l-192 44q-14 2 -39.5 9t-52.5 16t-52 21.5t-39 25.5q-31 31 -38 71t-7 68q0 22 5 60.5t34 65.5q26 26 63 31t55 5h552v94h-510q-76 0 -141 -13.5t-115 -78.5q-54 -68 -55 -172z" />
<glyph unicode="t" horiz-adv-x="555" d="M20 969h147v-611q0 -96 11 -171.5t61 -124.5q25 -25 55.5 -37.5t63.5 -18.5t67 -6h71h80v94h-57q-90 0 -130 7.5t-58 19.5q-24 17 -37 46.5t-18.5 65.5t-5.5 74v72v590h294v94h-294v342h-103v-342h-147v-94z" />
<glyph unicode="u" horiz-adv-x="1047" d="M100 321q0 -26 2 -57t11 -64t26.5 -66.5t49.5 -60.5q52 -47 113.5 -60t145.5 -13h289q44 0 87 4t73 28q34 29 42.5 66.5t8.5 70.5v894h-105v-881q0 -11 -2 -30.5t-18 -34.5q-12 -12 -31.5 -17.5t-38.5 -5.5h-295q-65 0 -121 12.5t-90 58.5q-16 22 -29 63t-13 125v710 h-105v-742z" />
<glyph unicode="v" horiz-adv-x="918" d="M-20 1063l369 -983q22 -57 51 -74.5t60 -17.5q30 0 59 17.5t51 74.5l369 983h-106l-343 -927q-4 -10 -13.5 -27t-16.5 -17q-8 0 -17.5 17t-13.5 27l-343 927h-106z" />
<glyph unicode="w" horiz-adv-x="1375" d="M-20 1063l261 -987q10 -34 31 -61t71 -27q30 0 49.5 10t31 24t18 29.5t10.5 26.5l220 831q2 10 6 23.5t10 13.5t10.5 -13.5t6.5 -23.5l220 -831q2 -11 9.5 -26.5t19 -29.5t31 -24t49.5 -10q50 0 71 27t31 61l260 987h-103l-239 -939q-4 -9 -9 -20.5t-13 -11.5 q-10 0 -14.5 13.5t-6.5 16.5l-226 866q-16 56 -44.5 72t-52.5 16q-25 0 -52 -16t-44 -72l-226 -866q-2 -3 -6.5 -16.5t-14.5 -13.5q-8 0 -13 11.5t-9 20.5l-239 939h-104z" />
<glyph unicode="x" horiz-adv-x="862" d="M-20 0h127l324 467l326 -467h126l-393 546l375 517h-122l-312 -439l-310 439h-123l377 -517z" />
<glyph unicode="y" horiz-adv-x="996" d="M-20 1063l449 -1057l-160 -349h112l636 1406h-111l-420 -933l-394 933h-112z" />
<glyph unicode="z" horiz-adv-x="884" d="M40 90q0 -30 14.5 -48t33.5 -27t42 -12t41 -3h674v94h-674h-12t-6 10t6 16t10 12l639 759q12 15 21.5 41.5t9.5 44.5q0 30 -22 58t-66 28h-680v-94h632q9 0 16 -3t7 -14q0 -10 -7 -16.5t-12 -14.5l-615 -720q-16 -18 -34 -47.5t-18 -63.5z" />
<glyph unicode="{" horiz-adv-x="593" d="M100 532q40 -4 72.5 -28.5t32.5 -76.5v-255q0 -11 1 -31t2 -40.5t2 -37.5t1 -25q2 -30 11 -65t26 -70t45 -69.5t71 -59.5q46 -29 88 -39t82 -8v93q-46 -4 -80.5 8.5t-58.5 33.5q-34 26 -52 60t-26 69t-10 69t-2 61v277q0 22 -2 46.5t-9 47t-23 41.5t-45 29v16 q29 10 45 29t23 41t9 47t2 48v276q0 27 2 61t10 69t26.5 69t51.5 61q24 19 58.5 32.5t80.5 9.5v92q-40 2 -82 -8t-88 -38q-43 -28 -71 -61.5t-45 -68.5t-26 -70t-11 -65q0 -8 -1 -25.5t-2 -37.5l-2 -40t-1 -32v-255q0 -51 -32.5 -75.5t-72.5 -27.5v-77z" />
<glyph unicode="|" horiz-adv-x="300" d="M100 -327h101v1813h-101v-1813z" />
<glyph unicode="}" horiz-adv-x="593" d="M60 -180v-93q40 -2 82 8t89 39q42 26 70 60t45.5 69t25 70t11.5 65q0 8 1 25t2 37.5t2 40.5t1 31v255q0 52 32.5 76.5t72.5 28.5v77q-40 3 -72.5 27.5t-32.5 75.5v255q0 12 -1 32l-2 40t-2 37.5t-1 25.5q-4 30 -11.5 65t-25 70t-45.5 68.5t-70 61.5q-46 29 -88.5 38.5 t-82.5 7.5v-92q46 4 80 -9.5t59 -32.5q32 -27 51 -61t27 -69t10 -69t2 -61v-276q0 -23 1 -48t9 -47t24 -41t45 -29v-16q-29 -10 -45 -29t-24 -41.5t-9 -47.5t-1 -46v-277q0 -27 -2 -61t-10 -69t-27 -69.5t-51 -59.5q-25 -20 -58.5 -33t-80.5 -9z" />
<glyph unicode="~" horiz-adv-x="1069" d="M60 636l70 -64q18 29 46.5 59.5t62.5 48.5q34 20 62 24.5t36 4.5q46 0 83.5 -19.5t67.5 -34.5l90 -53q38 -23 70 -32.5t78 -9.5q48 0 87.5 12t79.5 40q34 25 64.5 58t51.5 67l-70 62q-16 -29 -39 -56t-47 -44q-52 -42 -116 -42q-44 0 -76.5 13.5t-60.5 30.5l-108 63 q-26 16 -61.5 28.5t-87.5 12.5q-48 0 -89 -14t-76 -36q-34 -23 -65 -56t-53 -63z" />
<glyph unicode="&#xa9;" horiz-adv-x="1673" d="M100 705q0 -89 9.5 -177t35.5 -169.5t75 -152t131 -122.5q109 -70 233.5 -85t252.5 -15t252.5 15t233.5 85q80 52 130 122.5t76 152t35.5 169.5t9.5 177q0 78 -8.5 164.5t-34.5 169.5t-75 157t-133 127q-52 32 -111.5 51t-122.5 30t-127.5 14t-124.5 3t-124 -3t-128 -14 t-123.5 -30.5t-110.5 -50.5q-84 -52 -133 -126.5t-75 -157.5t-34.5 -169.5t-8.5 -164.5zM217 705q0 68 5.5 142t26 144t57.5 131.5t98 105.5q12 8 40.5 25t80 32t128.5 27.5t184 12.5t184 -12.5t128 -27.5t80 -31.5t41 -25.5q60 -44 97.5 -105.5t58 -131.5t26 -144.5 t5.5 -141.5q0 -54 -4 -125.5t-23 -145.5t-56 -143t-104 -117q-46 -34 -103 -53t-115 -28t-114.5 -11t-100.5 -2q-46 0 -101.5 2t-113.5 11t-115 28t-103 53q-67 48 -104 117t-56.5 143t-23 145.5t-3.5 125.5zM421 701q0 -81 11.5 -149t57.5 -133q54 -76 118 -98t135 -22h399 v96h-393q-52 0 -97.5 17t-77.5 76q-19 38 -27.5 90t-8.5 96q0 62 10 127.5t32 105.5q8 14 22 32t37 34.5t53 27t72 10.5h354v96h-354q-32 0 -67.5 -3.5t-71 -16.5t-70 -36t-63.5 -61q-50 -67 -60.5 -146.5t-10.5 -142.5z" />
<glyph unicode="&#xab;" horiz-adv-x="798" d="M100 564q0 -33 9.5 -51.5t20.5 -37.5l263 -385l86 59l-248 359q-8 11 -15 25.5t-7 30.5q0 15 6.5 30t15.5 26l248 359l-86 59l-263 -385q-11 -18 -20.5 -37.5t-9.5 -51.5zM395 564q0 -20 11 -44t25 -45l183 -266l85 58l-163 233q-18 26 -25 40t-7 24q0 13 14 35.5 t18 28.5l163 233l-85 58l-183 -266q-14 -20 -25 -44.5t-11 -44.5z" />
<glyph unicode="&#xad;" horiz-adv-x="802" d="M100 486h603v116h-603v-116z" />
<glyph unicode="&#xae;" horiz-adv-x="1095" d="M100 994q0 -46 4.5 -93.5t16 -93t35.5 -86.5t64 -75q39 -33 82 -48.5t86 -21.5t83 -6h77h74q42 0 85.5 6t86.5 22t81 48q40 34 64 75t36.5 86.5t16.5 93t4 93.5q0 44 -4 92t-16.5 93t-36.5 86t-64 76q-38 32 -81 48t-86.5 22t-85.5 6h-74h-77q-40 0 -83 -6t-86 -22 t-82 -48q-40 -35 -64 -76t-35.5 -86t-16 -93t-4.5 -92zM180 994q0 22 1 54t7.5 67.5t18.5 70t34 63.5q30 42 67 62t78 28.5t81 8.5h81h78q42 0 83.5 -8.5t78.5 -28.5t67 -62q19 -29 32 -63.5t18.5 -70t7.5 -68t2 -53.5q0 -23 -2 -55t-7.5 -67t-18 -70.5t-32.5 -62.5 q-31 -42 -67.5 -62t-78 -29.5t-83.5 -9.5h-78h-81q-40 0 -81 9.5t-78.5 29.5t-66.5 62q-22 28 -34 63t-18.5 70t-7.5 67t-1 55zM337 749h80v381q0 4 1 16t5 16q4 2 13.5 3t15.5 1h162q10 0 26.5 -3t25.5 -17q12 -16 12 -36v-70q0 -20 -16 -33q-5 -3 -27.5 -5t-28.5 -2h-70 q-12 0 -27 -4t-15 -33q0 -22 7 -31t16 -19l163 -164h109l-183 184h51q13 0 31.5 4.5t35.5 18t27.5 43t10.5 81.5q0 32 -7.5 73.5t-38.5 62.5q-19 16 -43 18.5t-51 2.5h-199q-30 0 -45.5 -5.5t-26.5 -15.5q-10 -10 -12 -23t-2 -25v-419z" />
<glyph unicode="&#xb4;" horiz-adv-x="1670" />
<glyph unicode="&#xb8;" horiz-adv-x="1670" />
<glyph unicode="&#xbb;" horiz-adv-x="798" d="M100 267l84 -58l184 266q13 20 24.5 44.5t11.5 44.5q0 19 -11.5 43.5t-24.5 45.5l-184 266l-84 -58l163 -233q4 -6 18 -28t14 -36q0 -10 -7 -24t-25 -40zM319 149l87 -59l262 385q12 18 21.5 37.5t9.5 51.5t-9.5 51t-21.5 38l-262 385l-87 -59l249 -359q8 -11 15 -25.5 t7 -30.5t-7 -30.5t-15 -25.5z" />
<glyph unicode="&#xc4;" horiz-adv-x="1320" d="M-34 0l538 1272q11 28 25.5 55t32.5 48t42 33.5t57 12.5q61 0 96.5 -46t59.5 -103l537 -1272h-115l-171 410h-815l-171 -410h-116zM295 506h731l-308 735q-9 22 -22.5 51t-34.5 29q-23 0 -36 -29.5t-23 -50.5zM417 1565v165h113v-165h-113zM775 1565v165h112v-165h-112z " />
<glyph unicode="&#xd6;" horiz-adv-x="1542" d="M100 703q0 59 4.5 133.5t20 150.5t49 148.5t93.5 132.5q53 54 119 84.5t134 45.5t135.5 19t125.5 4t125 -4t135.5 -19t134 -45t119.5 -85q59 -60 92.5 -132.5t49.5 -148.5t20 -150.5t4 -133.5q0 -60 -4 -134.5t-20 -151t-49.5 -148.5t-92.5 -133q-54 -54 -119.5 -85 t-134 -46t-135.5 -18t-125 -3t-125.5 3t-135.5 18t-133.5 46t-119.5 85q-60 60 -93.5 132.5t-49 149t-20 150.5t-4.5 135zM217 703q0 -60 1.5 -126.5t14 -130t36.5 -123.5t68 -108q44 -50 100.5 -77t115.5 -40.5t118 -15.5t110 -2q50 0 109.5 2t118.5 15.5t114 40.5t101 77 q44 48 68 108t36.5 123.5t14.5 129.5t2 127q0 59 -2 125.5t-14.5 129.5t-36.5 123.5t-68 108.5q-46 50 -101 77.5t-114 40.5t-118.5 15t-109.5 2t-109.5 -2t-118.5 -15t-115.5 -40t-100.5 -78q-44 -48 -68 -108.5t-36.5 -123.5t-14 -129.5t-1.5 -125.5zM532 1580v157h108 v-157h-108zM931 1580v157h109v-157h-109z" />
<glyph unicode="&#xdc;" d="M142 437v968h109v-930q0 -32 1 -69t8 -75t22 -74.5t41 -65.5q33 -38 75 -60t89 -33.5t97 -14.5t96 -3t96.5 3t97.5 14.5t89 33.5t75 60q26 30 41 66t21.5 74t8 75.5t1.5 68.5v930h108v-968q0 -74 -19 -157t-81 -154q-46 -50 -104 -78t-118.5 -42t-117 -18t-98.5 -4t-99 4 t-117 18t-118.5 42t-102.5 78q-32 37 -51.5 76t-30 79t-15 80.5t-4.5 75.5zM423 1580v157h109v-157h-109zM823 1580v157h108v-157h-108z" />
<glyph unicode="&#xdf;" horiz-adv-x="1157" d="M104 0v969v131v32q0 56 22.5 106.5t59 87.5t87 59t108.5 22h228v2h151q77 0 130.5 -24t80.5 -54q10 -10 17.5 -19.5t15.5 -18.5q22 -52 33 -111.5t11 -117t-11 -108t-33 -89.5q-50 -68 -131 -80v-6q44 -4 76 -22t55 -39q22 -24 36 -71t21 -107t7 -126.5t-7 -128 t-21 -111.5t-36 -78q-2 -4 -6 -8t-6 -8q-52 -54 -99.5 -68t-101.5 -14h-442v96h373q20 0 46.5 1t52.5 7.5t51 20t43 38.5q23 30 33.5 101t10.5 149.5t-8.5 147.5t-27.5 96q-22 32 -61 54t-85 22h-428v96h367q44 0 96.5 9t89.5 55q28 36 36 71.5t8 79.5q0 56 -7.5 96 t-18.5 65t-22 40t-19 23q-34 32 -70.5 37t-63.5 5h-94h-42h-228q-34 0 -65 -14.5t-54 -40t-36 -57.5t-13 -66v-32v-1100h-109z" />
<glyph unicode="&#xe4;" horiz-adv-x="1047" d="M78 329q0 65 15.5 134t73.5 117q44 36 98 46t101 10h461v159q0 26 -10 64t-30 62q-16 20 -45.5 34t-67.5 14h-515v94h521q54 0 104.5 -20t82.5 -53q42 -46 53 -105.5t11 -107.5v-637q0 -22 -5 -54t-31 -56q-25 -22 -58.5 -26t-61.5 -4h-409q-47 0 -98 7t-96 41 q-34 26 -52 65.5t-28 78.5t-12 76t-2 61zM191 325q0 -48 7 -99.5t35 -85.5q16 -19 43 -32.5t61 -13.5h429q10 0 23.5 1t22.5 12q10 10 12.5 17.5t2.5 17.5v400h-486q-46 0 -75 -18t-42 -34q-19 -26 -26 -67.5t-7 -97.5zM295 1241v164h113v-164h-113zM653 1241v164h111v-164 h-111z" />
<glyph unicode="&#xf6;" horiz-adv-x="1222" d="M86 538q0 44 4 99.5t18 112.5t40 112t71 97q38 39 86 62t99.5 35t104.5 16t103 4t103 -4t104.5 -16t98.5 -35t87 -62q45 -42 71 -97t40 -112t18 -112.5t4 -99.5q0 -172 -41.5 -275.5t-91.5 -153.5q-44 -42 -97 -66.5t-107 -36.5t-103 -15t-86 -3q-36 0 -85.5 3t-103.5 15 t-107 36.5t-97 66.5q-52 50 -92.5 153.5t-40.5 275.5zM199 528q0 -32 1 -76t9 -91.5t25 -94t51 -82.5q33 -34 71.5 -54.5t83 -31t88.5 -13.5t84 -3q41 0 85 3t88 13.5t83 31.5t71 54q32 36 50 82.5t26 94t9.5 91.5t1.5 76q0 35 -1.5 82t-9.5 96t-25 95t-48 82 q-31 34 -72 53.5t-86 29t-89 12.5t-83 3q-38 0 -82 -3t-89.5 -12.5t-86.5 -29t-71 -53.5q-32 -36 -49 -82t-25 -95t-9 -96t-1 -82zM368 1239v164h111v-164h-111zM724 1239v164h113v-164h-113z" />
<glyph unicode="&#xfc;" horiz-adv-x="1011" d="M82 321v742h104v-710q0 -84 13.5 -125.5t28.5 -62.5q35 -46 91 -58.5t121 -12.5h295q20 0 39 5t31 18q15 15 17.5 34.5t2.5 30.5v881h104v-894q0 -33 -8 -71t-42 -66q-30 -24 -73.5 -28t-87.5 -4h-289q-84 0 -145.5 13t-112.5 60q-33 28 -50 61t-26 66t-11 64t-2 57z M263 1239v164h112v-164h-112zM620 1239v164h113v-164h-113z" />
<glyph unicode="&#x401;" horiz-adv-x="1243" d="M140 195q0 -40 6.5 -80.5t37.5 -72.5q35 -34 73 -38t74 -4h833v96h-804q-18 0 -49.5 4t-41.5 15q-10 9 -15 26.5t-5 29.5v499h887v96h-887v452q0 10 3 33t18 38q10 9 33.5 14t39.5 5h813v97h-829q-40 0 -78 -8t-69 -45q-8 -9 -24 -40t-16 -94v-1023zM416 1580h108v157 h-108v-157zM814 1580h109v157h-109v-157z" />
<glyph unicode="&#x402;" horiz-adv-x="1549" d="M-40 1308h361v-1308h108v662h723q47 0 83.5 -16t57.5 -42q26 -33 33 -86.5t7 -149.5q0 -56 -5 -119t-37 -100q-35 -40 -78 -46.5t-85 -6.5h-289v-96h347q19 0 44.5 1t51.5 9t52.5 24t48.5 44q26 35 46 105t20 206q0 28 -1.5 64.5t-9 73.5t-21.5 74t-38 67 q-50 60 -114.5 75.5t-113.5 15.5h-722v549h597v97h-1066v-97z" />
<glyph unicode="&#x403;" horiz-adv-x="1005" d="M0 0h109v1214q0 20 1 40t11 33q15 19 46.5 20t52.5 1h785v97h-848q-27 0 -57.5 -8t-59.5 -36q-28 -28 -34 -57.5t-6 -56.5v-1247zM351 1563l63 -77l247 200l-63 78z" />
<glyph unicode="&#x404;" horiz-adv-x="1316" d="M100 714q0 -103 8.5 -191t29.5 -160t57 -131.5t92 -105.5q84 -70 186.5 -98t212.5 -28h530v96h-550q-100 0 -175 28.5t-129 76.5q-50 44 -79.5 100.5t-45 116t-19 124t-1.5 126.5h951v96h-951q-2 50 0.5 102.5t15 103.5t33.5 100.5t55 91.5q58 71 141.5 108.5t175.5 37.5 h559v97h-511q-36 0 -86 -4.5t-107.5 -18t-116 -43t-111.5 -79.5q-58 -54 -90.5 -121t-49 -138.5t-21 -144.5t-4.5 -142z" />
<glyph unicode="&#x405;" horiz-adv-x="1296" d="M100 1092q0 -58 13 -117.5t58 -109.5q28 -34 74 -60t98 -45l561 -192q57 -19 92.5 -45.5t53.5 -56t24 -62.5t6 -67q0 -74 -14 -120t-37.5 -73t-52 -37.5t-61.5 -10.5h-793v-96h782q26 0 56 3t59 12t56.5 27t52.5 50q26 34 40 75.5t20.5 78.5t7.5 64t1 31q0 52 -17.5 114 t-69.5 113q-36 35 -88.5 59t-115.5 45l-546 193q-50 18 -79.5 43t-44 53.5t-17 60.5t-2.5 66q0 36 4.5 84t37.5 82q26 29 67.5 41.5t79.5 12.5h724v97h-713q-84 0 -138.5 -22t-83.5 -48q-65 -54 -80 -121.5t-15 -121.5z" />
<glyph unicode="&#x406;" horiz-adv-x="389" d="M140 0h109v1405h-109v-1405z" />
<glyph unicode="&#x407;" horiz-adv-x="441" d="M60 1530h109v158h-109v-158zM167 0h108v1405h-108v-1405zM273 1530h108v158h-108v-158z" />
<glyph unicode="&#x408;" horiz-adv-x="785" d="M-40 0h279q111 0 185 43t114 85q52 56 80 136.5t28 206.5v934h-108v-934q0 -76 -17 -155t-75 -136q-30 -28 -85.5 -55t-143.5 -27h-257v-98z" />
<glyph unicode="&#x409;" horiz-adv-x="2193" d="M-40 0h122l815 1289q13 22 36 21q8 0 21 -5t13 -31v-1105q0 -33 5 -64t30 -59q26 -30 55 -38t53 -8h646q62 0 109.5 13t80.5 31t53 37t31 32q22 28 35 63t18.5 73t7.5 73.5t2 62.5q0 34 -2 72.5t-7.5 75.5t-16 70t-26.5 58q-26 38 -85.5 70.5t-170.5 32.5h-709v513 q0 72 -38 108t-90 36q-35 0 -59 -11.5t-42 -27t-30 -33.5t-20 -33zM1076 184v484h722q20 0 57 -4.5t66 -29.5q19 -18 31.5 -48t17.5 -65t6 -71t1 -69q0 -60 -6 -121t-44 -101q-29 -31 -77 -47t-100 -16h-584q-22 0 -44 3t-34 22q-6 9 -9 28.5t-3 34.5z" />
<glyph unicode="&#x40a;" horiz-adv-x="2386" d="M140 0h109v668h911v-499q0 -33 5 -64t30 -59q26 -30 55 -38t52 -8h647q62 0 109 13t80.5 31t53.5 37t30 32q22 28 35 63t19 73t8 73.5t2 62.5q0 34 -2 72.5t-8 75.5t-16 70t-27 58q-26 38 -85 70.5t-171 32.5h-709v641h-108v-641h-911v641h-109v-1405zM1268 184v484h723 q20 0 57 -4.5t66 -29.5q19 -18 31.5 -48t17.5 -65t6 -71t1 -69q0 -60 -6 -121t-44 -101q-29 -31 -77 -47t-101 -16h-584q-22 0 -43.5 3t-33.5 22q-6 9 -9.5 28.5t-3.5 34.5z" />
<glyph unicode="&#x40b;" horiz-adv-x="1509" d="M-40 1308h361v-1308h108v662h707q22 0 55 -4.5t61 -29.5q35 -28 41.5 -61t6.5 -53v-514h109v496q0 58 -15 115t-73 99q-42 31 -96.5 40t-100.5 9h-695v549h597v97h-1066v-97z" />
<glyph unicode="&#x40c;" horiz-adv-x="1256" d="M140 0h109v1405h-109v-1405zM327 722q0 -42 34 -89t89 -89l704 -544h162l-776 598q-34 26 -69.5 57t-35.5 65q0 16 10.5 31t24.5 28.5t29 24t25 19.5l719 582h-157l-659 -530q-34 -28 -67 -69.5t-33 -83.5zM524 1563l62 -77l247 200l-63 78z" />
<glyph unicode="&#x40e;" horiz-adv-x="1224" d="M-60 1405l632 -1166l-126 -239h120l719 1405h-121l-536 -1058l-568 1058h-120zM321 1678q12 -65 43 -103.5t59 -61.5q44 -32 91.5 -40t97.5 -8t97.5 8t91.5 40q28 23 59 62t44 103h-117q-4 -31 -18 -51t-26 -30q-29 -26 -63 -31t-68 -5t-68 5.5t-62 30.5q-12 10 -26 30 t-19 51h-116z" />
<glyph unicode="&#x40f;" horiz-adv-x="1392" d="M140 109q0 -23 4.5 -44t22.5 -39q22 -22 51 -24t52 -2h372v-339h109v339h371q25 0 53.5 2t50.5 24q18 18 22 39t4 44v1296h-108v-1242q0 -23 -2 -32.5t-6 -15.5q-10 -14 -21.5 -16.5t-26.5 -2.5h-783q-16 0 -27 2t-21 17q-4 6 -6 15.5t-2 32.5v1242h-109v-1296z" />
<glyph unicode="&#x410;" horiz-adv-x="1348" d="M-20 0h116l171 410h815l170 -410h117l-538 1272q-24 56 -59 102.5t-98 46.5q-32 0 -56 -12.5t-42 -33.5t-32 -48t-27 -55zM309 506l307 735q10 22 23.5 51t34.5 29q23 0 35.5 -29.5t23.5 -50.5l307 -735h-731z" />
<glyph unicode="&#x411;" d="M140 176q0 -30 4.5 -65t22.5 -59q13 -18 44.5 -35t93.5 -17h662q25 0 53 2t56.5 11.5t58 26t53.5 44.5q26 31 41.5 69t23 77.5t10.5 78t3 66.5q0 133 -24 196t-40 86q-50 66 -115.5 82t-123.5 16h-714v465q0 50 24 73q10 9 30 12t48 3h849v97h-893q-31 0 -64.5 -8 t-62.5 -39q-28 -30 -34 -68t-6 -72v-1042zM249 213v446h678q38 0 82.5 -5t82.5 -45q17 -20 29.5 -47.5t18.5 -58t8.5 -61t2.5 -59.5q0 -80 -12.5 -140.5t-46.5 -93.5q-38 -40 -83.5 -46.5t-81.5 -6.5h-556q-30 0 -62 3t-48 27q-4 8 -8 24.5t-4 62.5z" />
<glyph unicode="&#x412;" d="M140 180q0 -32 7.5 -68t34.5 -66q40 -40 90.5 -43t89.5 -3h619q54 0 102.5 13t98.5 69q32 37 49.5 73t25 73t8.5 75t1 76q0 67 -6 132t-52 119q-19 25 -55.5 48t-89.5 29v7q39 4 70 22.5t60 52.5q40 52 49.5 112t9.5 125q0 34 -2.5 74t-12 80t-26 78.5t-47.5 68.5 q-30 32 -82 55t-128 23h-649q-33 0 -64.5 -8t-60.5 -41q-19 -24 -29.5 -60t-10.5 -76v-1040zM249 205v454h720q44 0 84.5 -22.5t60.5 -52.5q10 -16 17 -42.5t11 -55t6.5 -57.5t2.5 -52q0 -24 -2.5 -53t-7.5 -59t-13 -57.5t-23 -44.5q-17 -27 -42 -39.5t-50 -19t-51.5 -7.5 t-46.5 -1h-560q-25 0 -51.5 3t-40.5 20q-6 7 -10 24.5t-4 61.5zM249 755v473q0 12 5 33.5t15 31.5q11 13 27.5 14t32.5 1h608q28 0 64.5 -5t70.5 -37q8 -8 19 -23t21 -41t17 -66t7 -96q0 -23 -2 -53t-6 -62t-13.5 -61t-22.5 -47q-35 -44 -86.5 -53t-98.5 -9h-658z" />
<glyph unicode="&#x413;" horiz-adv-x="1105" d="M140 0h109v1214q0 20 1 40t11 33q15 19 46.5 20t54.5 1h784v97h-849q-27 0 -57.5 -8t-59.5 -36q-28 -28 -34 -57.5t-6 -56.5v-1247z" />
<glyph unicode="&#x414;" horiz-adv-x="1509" d="M-40 0h1589v96h-100l-549 1185q-29 58 -61 99t-84 41t-85.5 -41t-58.5 -99l-551 -1185h-100v-96zM180 96l532 1160q4 10 16.5 29t26.5 19q13 0 25.5 -19t16.5 -29l532 -1160h-1149z" />
<glyph unicode="&#x415;" horiz-adv-x="1243" d="M140 195q0 -40 6.5 -80.5t37.5 -72.5q35 -34 73 -38t74 -4h833v96h-804q-18 0 -48.5 4t-42.5 15q-10 9 -15 24.5t-5 31.5v499h887v96h-887v452q0 10 3 33t18 38q10 9 33.5 14t39.5 5h813v97h-829q-40 0 -78 -8t-69 -45q-8 -9 -24 -40t-16 -94v-1023z" />
<glyph unicode="&#x416;" horiz-adv-x="1921" d="M-40 0h162l590 544q16 14 36 35t38.5 45.5t30.5 49.5t12 46q0 20 -10.5 42.5t-24 43.5t-30.5 39t-29 30l-544 530h-157l606 -582q44 -42 62 -66t18 -41q0 -24 -28 -52t-68 -66zM907 0h108v1405h-108v-1405zM1094 720q0 -6 2 -20t14 -35t35 -52t65 -69l590 -544h163 l-665 598q-40 38 -68 66.5t-28 51.5q0 16 18.5 40.5t62.5 66.5l605 582h-156l-544 -530q-12 -12 -29 -30t-31 -39t-24 -43t-10 -43z" />
<glyph unicode="&#x417;" horiz-adv-x="1229" d="M80 0h682q62 0 126 12t110 40q76 44 104 122.5t28 196.5q0 2 -1 29t-4 62.5t-12.5 73.5t-22.5 66q-33 58 -83 80.5t-88 26.5v7q29 8 58.5 24.5t52.5 38.5q52 52 63.5 119t11.5 134q0 36 -1.5 76t-10.5 79t-25 74.5t-45 65.5q-28 28 -58 44t-60 23t-59 9t-53 2h-705v-97 h724q37 0 69 -12.5t52 -33.5q20 -22 31 -50t17.5 -58t7.5 -61.5t1 -56.5q0 -54 -5.5 -107.5t-38.5 -95.5q-23 -28 -51 -44.5t-57.5 -23t-58 -7.5t-53.5 -1h-617v-96h670q34 0 85 -8.5t92 -48.5q42 -44 49.5 -109.5t7.5 -125.5q0 -34 -2 -67t-10.5 -65t-26 -59t-49.5 -46 q-34 -19 -89 -27.5t-99 -8.5h-657v-96z" />
<glyph unicode="&#x418;" horiz-adv-x="1460" d="M140 147q0 -20 3.5 -48t14.5 -53.5t35 -43.5t66 -18q32 0 55 10t41 27t32.5 39t29.5 47l725 1142q10 17 23 37t28 20t17 -16t2 -24v-1266h109v1247q0 13 -2.5 42.5t-13 58.5t-35.5 51t-70 22q-34 0 -58 -11.5t-43 -30t-37 -47t-39 -60.5l-712 -1134q-8 -10 -16 -25 t-22 -15q-22 0 -23 19t-1 42v1246h-109v-1258z" />
<glyph unicode="&#x419;" horiz-adv-x="1460" d="M140 147q0 -20 3.5 -48t14.5 -53.5t35 -43.5t66 -18q32 0 55 10t41 27t32.5 39t29.5 47l725 1142q10 17 23 37t28 20t17 -16t2 -24v-1266h109v1247q0 13 -2.5 42.5t-13 58.5t-35.5 51t-70 22q-34 0 -58 -11.5t-43 -30t-37 -47t-39 -60.5l-712 -1134q-8 -10 -16 -25 t-22 -15q-22 0 -23 19t-1 42v1246h-109v-1258zM440 1676q12 -65 43 -103.5t59 -61.5q44 -32 91 -40t97 -8t97.5 8t91.5 40q29 23 59.5 62t42.5 103h-115q-4 -31 -18.5 -51t-26.5 -30q-28 -26 -62.5 -31t-68.5 -5t-68 5.5t-62 30.5q-12 10 -26 30t-18 51h-116z" />
<glyph unicode="&#x41a;" horiz-adv-x="1256" d="M140 0h109v1405h-109v-1405zM327 722q0 -42 34 -89t89 -89l704 -544h162l-776 598q-34 26 -69.5 57t-35.5 65q0 16 10.5 31t24.5 28.5t29 24t25 19.5l719 582h-157l-659 -530q-34 -28 -67 -69.5t-33 -83.5z" />
<glyph unicode="&#x41b;" horiz-adv-x="1256" d="M-60 0h116l530 1279q6 14 13 30t29 16q23 0 29.5 -16t12.5 -30l530 -1279h116l-546 1298q-15 41 -31.5 65t-33.5 37t-35.5 17t-41.5 4q-44 0 -77.5 -21t-64.5 -102z" />
<glyph unicode="&#x41c;" horiz-adv-x="1869" d="M140 0h109v1289q0 22 10 29t18 7q10 0 22 -14t17 -26l477 -1149q28 -64 58 -108t84 -44t84.5 44.5t58.5 107.5l477 1149q4 12 16.5 26t21.5 14q8 0 18.5 -7.5t10.5 -28.5v-1289h108v1289q0 58 -36 95t-97 37q-59 0 -91.5 -37t-59.5 -101l-477 -1145q-4 -12 -10.5 -28 t-23.5 -16q-16 0 -22.5 16t-10.5 28l-477 1145q-28 65 -60 101.5t-92 36.5q-59 0 -96 -37t-37 -95v-1289z" />
<glyph unicode="&#x41d;" horiz-adv-x="1408" d="M140 0h109v666h911v-666h108v1405h-108v-643h-911v643h-109v-1405z" />
<glyph unicode="&#x41e;" horiz-adv-x="1561" d="M100 703q0 -60 4.5 -134.5t20 -151t49 -148.5t93.5 -133q53 -54 119 -85t134 -46t135 -18t126 -3q58 0 125 3t135.5 18t134 46t119.5 85q59 60 92.5 132.5t49.5 149t20 150.5t4 135q0 59 -4 133.5t-20 150.5t-49.5 148.5t-92.5 132.5q-54 54 -119.5 84.5t-134 45.5 t-135.5 19t-125 4t-125.5 -4t-135.5 -19t-133.5 -45t-119.5 -85q-60 -60 -93.5 -132.5t-49 -148.5t-20 -150.5t-4.5 -133.5zM217 703q0 59 1.5 125.5t14 129.5t36.5 123.5t68 108.5q44 50 100.5 77.5t115.5 40.5t118 15t110 2q50 0 109.5 -2t118.5 -15t114 -40t101 -78 q44 -48 68 -108.5t36.5 -123.5t14.5 -129.5t2 -125.5q0 -60 -2 -126.5t-14.5 -130t-36.5 -123.5t-68 -108q-46 -50 -101 -77t-114 -40.5t-118.5 -15.5t-109.5 -2t-109.5 2t-118.5 15.5t-115.5 40.5t-100.5 77q-44 48 -68 108t-36.5 123.5t-14 130t-1.5 126.5z" />
<glyph unicode="&#x41f;" horiz-adv-x="1392" d="M140 0h109v1232q0 16 1 31.5t15 29.5q13 13 28.5 14t29.5 1h747q14 0 29 -1t29 -14q14 -14 15 -29t1 -32v-1232h108v1222q0 34 -5.5 71.5t-36.5 69.5q-28 29 -59 35.5t-59 6.5h-791q-29 0 -59.5 -7t-59.5 -35q-30 -32 -36 -69.5t-6 -71.5v-1222z" />
<glyph unicode="&#x420;" d="M140 0h109v574h712q52 0 102.5 16t87.5 44q38 30 61 70.5t34.5 85.5t15.5 93t4 90q0 138 -23 222t-83 136q-59 52 -129 63t-138 11h-580q-8 0 -24 -1t-36 -5t-40 -11t-35 -21q-28 -28 -33 -64.5t-5 -63.5v-1239zM249 670v552q0 36 10 61t70 25h575q76 0 121 -20t67 -43 q19 -25 31.5 -58t18.5 -68t7.5 -67.5t1.5 -49.5q0 -20 -1.5 -55.5t-6.5 -74.5t-16 -76t-31 -61q-18 -23 -63 -44t-133 -21h-651z" />
<glyph unicode="&#x421;" horiz-adv-x="1281" d="M100 682q0 -178 33.5 -305.5t123.5 -217.5q24 -25 60 -52t87.5 -51t118.5 -40t153 -16h567v96h-544q-88 0 -154 18t-112 43t-76 55.5t-48 54.5q-33 44 -50.5 93.5t-27 102t-12 108t-2.5 109.5q0 58 2.5 121.5t13 124t31.5 117.5t57 103q45 55 98.5 87.5t109 49.5 t107.5 21t92 4h492v97h-538q-94 0 -166 -20t-124.5 -47.5t-87.5 -56.5t-53 -46q-52 -54 -81.5 -120.5t-45 -138.5t-20 -146.5t-4.5 -147.5z" />
<glyph unicode="&#x422;" horiz-adv-x="1203" d="M-40 1308h588v-1308h109v1308h588v97h-1285v-97z" />
<glyph unicode="&#x423;" horiz-adv-x="1224" d="M-60 1405l632 -1166l-126 -239h120l719 1405h-121l-536 -1058l-568 1058h-120z" />
<glyph unicode="&#x424;" horiz-adv-x="1769" d="M100 720q0 -54 3.5 -110t13 -111t28 -107.5t50.5 -96.5q40 -58 92 -91t107.5 -50.5t108.5 -22.5t97 -5h231v-126h108v126h231q44 0 97.5 5t108.5 22.5t107.5 50.5t92.5 91q32 44 49.5 96.5t28 107.5t13.5 111t3 110q0 115 -19 223.5t-90 200.5q-44 56 -95 87t-107.5 46.5 t-115.5 18t-117 2.5h-187v107h-108v-107h-187q-58 0 -117.5 -2.5t-115.5 -18t-107 -46.5t-95 -87q-71 -92 -90 -200.5t-19 -223.5zM217 728q0 84 8 166.5t44 151.5q30 56 71 88t85 47.5t88.5 18t78.5 2.5h239v-980h-180q-54 0 -113 4.5t-111 21.5t-96 52t-72 98 q-23 50 -32.5 126t-9.5 204zM939 222v980h239q34 0 78 -2.5t88.5 -18t85.5 -47.5t71 -88q37 -69 44.5 -151.5t7.5 -166.5q0 -128 -9.5 -204t-32.5 -126q-28 -62 -72 -97.5t-96 -52.5t-110.5 -21.5t-112.5 -4.5h-181z" />
<glyph unicode="&#x425;" horiz-adv-x="1123" d="M-40 0h128l474 634l474 -634h128l-544 712l528 693h-129l-457 -614l-458 614h-128l528 -693z" />
<glyph unicode="&#x426;" horiz-adv-x="1424" d="M140 161q0 -27 7.5 -65t41.5 -66q25 -19 61.5 -24.5t76.5 -5.5h1119v96h-196v1309h-108v-1309h-819q-11 0 -32 3t-32 20q-10 13 -10 34v38v1214h-109v-1244z" />
<glyph unicode="&#x427;" horiz-adv-x="1312" d="M121 952q0 -65 10.5 -118t44.5 -97q46 -58 111.5 -81.5t126.5 -23.5h649v-632h109v1405h-109v-677h-628q-12 0 -32 1t-43 7.5t-47 17t-43 33.5q-32 36 -37 80t-5 81v457h-107v-453z" />
<glyph unicode="&#x428;" horiz-adv-x="1954" d="M140 151q0 -20 5.5 -54.5t28.5 -58.5q27 -28 64 -33t53 -5h1373q16 0 53 5t64 33q24 25 28.5 58.5t4.5 54.5v1254h-108v-1227q0 -17 -1 -32.5t-9 -26.5q-9 -16 -25.5 -19.5t-30.5 -3.5h-608v1309h-109v-1309h-607q-14 0 -30.5 3t-26.5 20q-8 11 -9 26.5t-1 32.5v1227 h-109v-1254z" />
<glyph unicode="&#x429;" horiz-adv-x="1988" d="M140 151q0 -20 5.5 -54.5t28.5 -58.5q27 -28 64 -33t53 -5h1718v96h-195v1309h-108v-1309h-674v1309h-109v-1309h-607q-14 0 -30.5 3t-26.5 20q-8 11 -9 26.5t-1 32.5v1227h-109v-1254z" />
<glyph unicode="&#x42a;" horiz-adv-x="1469" d="M-20 1308h191q13 0 28.5 -6.5t24.5 -16.5q10 -12 14.5 -35.5t4.5 -39.5v-1041q0 -33 5 -64t29 -59q27 -30 56 -38t52 -8h647q62 0 109 13t80 31t53.5 37t29.5 32q23 28 35.5 63t19 73t8.5 73.5t2 62.5q0 34 -2 72.5t-8.5 75.5t-16 70t-26.5 58q-26 38 -85 70.5t-172 32.5 h-708v456q0 30 -6 71.5t-32 69.5q-10 10 -38 27t-82 17h-213v-97zM351 184v484h723q20 0 57 -4.5t66 -29.5q19 -18 31.5 -48t17 -65t5.5 -71t1 -69q0 -60 -5.5 -121t-44.5 -101q-28 -31 -76 -47t-100 -16h-584q-23 0 -45 3t-33 22q-6 9 -9.5 28.5t-3.5 34.5z" />
<glyph unicode="&#x42b;" horiz-adv-x="1687" d="M140 169q0 -33 5.5 -64t28.5 -59q27 -30 56 -38t53 -8h646q62 0 109.5 13t80.5 31t53.5 37t29.5 32q23 28 35.5 63t18.5 73t8 73.5t2 62.5q0 34 -2 72.5t-8 75.5t-16 70t-26 58q-26 38 -85 70.5t-172 32.5h-708v641h-109v-1236zM249 184v484h722q20 0 57 -4.5t66 -29.5 q19 -18 31.5 -48t17.5 -65t6.5 -71t1.5 -69q0 -60 -6.5 -121t-44.5 -101q-29 -31 -77 -47t-100 -16h-584q-22 0 -44 3t-34 22q-6 9 -9 28.5t-3 34.5zM1439 0h108v1405h-108v-1405z" />
<glyph unicode="&#x42c;" d="M140 169q0 -33 5.5 -64t28.5 -59q27 -30 56 -38t53 -8h646q115 0 179 36.5t94 76.5q23 28 35.5 63t18.5 73t8 73.5t2 62.5q0 34 -2 72.5t-8 75.5t-16 70t-26 58q-26 38 -85 70.5t-172 32.5h-708v641h-109v-1236zM249 184v484h722q20 0 57 -4.5t66 -29.5q19 -18 31.5 -48 t17.5 -64t6.5 -69.5t1.5 -63.5v-52t-5.5 -62t-15.5 -63.5t-30 -52.5q-29 -31 -77 -47t-100 -16h-584q-22 0 -44 3t-34 22q-6 9 -9 28.5t-3 34.5z" />
<glyph unicode="&#x42d;" horiz-adv-x="1316" d="M100 0h530q132 0 230.5 34.5t169.5 91.5q56 48 92 107.5t57 131.5t29 159.5t8 189.5q0 73 -4 146t-21 143.5t-50.5 135.5t-88.5 119q-54 52 -112.5 81.5t-115 44t-106.5 18t-88 3.5h-509v-97h557q92 0 175.5 -38t142.5 -108q34 -42 55 -91.5t33 -100.5t15 -103.5 t1 -102.5h-951v-96h951q2 -61 -2 -126t-19.5 -124.5t-44.5 -116t-78 -100.5q-54 -48 -129.5 -76.5t-175.5 -28.5h-551v-96z" />
<glyph unicode="&#x42e;" horiz-adv-x="1877" d="M140 0h109v672h167q-4 -76 4.5 -153t30.5 -147.5t55.5 -132t75.5 -103.5q54 -54 119 -85t135 -46t137 -18t125 -3q59 0 127 3t136 18t133 46t120 85q54 54 87 122.5t50 142.5t22.5 151.5t5.5 150.5q0 72 -5.5 149t-22.5 151.5t-50 142.5t-87 122t-119.5 84.5t-133.5 45.5 t-135.5 19t-127.5 4q-58 0 -125 -4t-137 -19t-135 -45t-119 -85q-40 -42 -72.5 -98t-54.5 -122.5t-31.5 -137.5t-7.5 -142h-167v637h-109v-1405zM532 703q0 59 2 125.5t14 129.5t36.5 123.5t68.5 108.5q44 50 99.5 77.5t115 40.5t119 15t109.5 2q68 0 130.5 -4.5t117 -17 t104 -39.5t92.5 -74q44 -48 69 -107.5t37 -123.5t14 -129.5t2 -126.5q0 -62 -2 -127.5t-14 -130t-37 -123.5t-69 -107q-43 -46 -92.5 -73t-104 -40.5t-117 -17.5t-130.5 -4q-50 0 -109.5 2t-119 15.5t-115 40.5t-99.5 77q-44 48 -68.5 108t-36.5 123.5t-14 130t-2 126.5z " />
<glyph unicode="&#x42f;" horiz-adv-x="1386" d="M80 0h159l620 530q16 12 27 25t11 35v32q0 23 -13 34.5t-35 11.5h-435q-52 0 -90.5 25t-54.5 54q-16 28 -27 83t-11 166q0 22 1 57t7 72t18.5 73.5t39.5 59.5q36 37 81 43.5t86 6.5h574q16 0 35 -3t37 -18q18 -16 23 -35.5t5 -37.5v-1214h109v1190q0 40 -8.5 83t-50.5 83 q-35 33 -74.5 41t-77.5 8h-592q-30 0 -66.5 -4.5t-72.5 -17t-69 -36.5t-60 -62q-40 -62 -50.5 -143t-10.5 -158q0 -65 8.5 -145t52.5 -148q12 -18 31 -39.5t49.5 -40.5t72.5 -31t98 -12h312v-10z" />
<glyph unicode="&#x430;" horiz-adv-x="1013" d="M60 329q0 -24 2.5 -61t12 -76t28 -78.5t52.5 -65.5q44 -34 95 -41t97 -7h410q28 0 62 4t58 26q27 25 31.5 57t4.5 53v637q0 48 -11 107.5t-53 105.5q-33 34 -83 53.5t-104 19.5h-522v-94h517q38 0 67 -13.5t44 -34.5q20 -24 30 -62t10 -64v-159h-461q-46 0 -100 -10 t-98 -46q-58 -48 -73.5 -117.5t-15.5 -133.5zM172 325q0 56 7 97.5t28 67.5q12 16 41 34t75 18h485v-400q0 -10 -1.5 -17.5t-11.5 -17.5t-23 -11.5t-23 -1.5h-430q-34 0 -61 13.5t-43 32.5q-29 34 -36 85.5t-7 99.5z" />
<glyph unicode="&#x431;" horiz-adv-x="1065" d="M100 433q0 -65 8.5 -131.5t48.5 -134.5q36 -65 86 -100t103.5 -53t106.5 -22t95 -4q44 0 96.5 5t104.5 22t99 50t83 92q46 76 60 179.5t14 205.5q0 86 -10.5 181.5t-59.5 171.5q-32 50 -75 83t-91.5 52.5t-97.5 26t-93 6.5h-373q2 48 20 95.5t52 82.5q35 34 87.5 51.5 t110.5 17.5h462v95h-468q-90 0 -177 -39t-137 -123q-38 -65 -46.5 -132t-8.5 -119v-559zM205 412v557h379q88 0 142.5 -23t83.5 -55q31 -33 48 -72.5t25 -82.5t9 -89.5t1 -90.5q0 -46 -2 -99t-10 -105.5t-24 -98.5t-43 -79q-28 -32 -63 -51t-72 -28t-73 -11t-62 -2 q-36 0 -76.5 4t-78.5 17.5t-72 36.5t-58 59q-29 40 -41.5 97t-12.5 116z" />
<glyph unicode="&#x432;" horiz-adv-x="998" d="M100 126q0 -24 4.5 -48t21.5 -44q31 -34 89 -34h494q36 0 78 12t82 55q50 54 60 122t10 134q0 41 -4 83t-31 78q-16 23 -43.5 41.5t-67.5 26.5v4q42 6 67 25t40 37q28 37 33.5 79t5.5 82q0 48 -10 106.5t-44 100.5q-23 26 -50 42t-53.5 23.5t-51.5 9.5t-42 2h-464 q-24 0 -48.5 -9.5t-41.5 -25.5q-15 -16 -24.5 -39.5t-9.5 -51.5v-811zM205 161v347h465q33 0 62.5 -9t56.5 -39q28 -35 33 -78t5 -77q0 -40 -5 -85.5t-33 -79.5q-29 -34 -62.5 -40t-77.5 -6h-380q-16 0 -29.5 2t-22.5 15q-8 10 -10 23t-2 27zM205 602v329q0 6 3 15.5t7 12.5 q4 4 15 7t17 3h423q23 0 54 -5t59 -31q34 -30 39 -71t5 -71q0 -36 -6.5 -74.5t-33.5 -70.5q-27 -31 -54.5 -37.5t-62.5 -6.5h-465z" />
<glyph unicode="&#x433;" horiz-adv-x="879" d="M100 0h105v893q0 10 1 29.5t11 31.5q11 15 44 15h639v94h-680q-28 0 -57 -8.5t-46 -41.5q-14 -22 -15.5 -50t-1.5 -52v-911z" />
<glyph unicode="&#x434;" horiz-adv-x="1047" d="M-20 0h1088v94h-87l-343 890q-10 28 -36 60t-78 32t-78.5 -32.5t-35.5 -59.5l-343 -890h-87v-94zM176 94l324 845l9.5 19t14.5 11q8 0 14 -10.5t10 -19.5l323 -845h-695z" />
<glyph unicode="&#x435;" horiz-adv-x="1036" d="M60 528q0 -118 12 -217.5t75 -180.5q30 -40 66 -66t73 -40t73 -19t68 -5h523v94h-523q-52 0 -92 17t-69 43t-48 59.5t-27 65.5q-12 42 -16 106.5t-3 110.5h649q23 0 55.5 5t56.5 27q16 14 25 33t13 38t5 37.5t1 29.5q0 85 -21 144t-49 99.5t-56 62.5t-44 32 q-65 38 -140 48.5t-131 10.5q-80 0 -170.5 -16.5t-162.5 -77.5q-50 -42 -79.5 -95t-43 -111t-17 -118.5t-3.5 -116.5zM172 590q2 78 10.5 138.5t39.5 112.5q29 46 63 72t73.5 38t79 15t79.5 3q37 0 73 -2t72.5 -10.5t69 -27t61.5 -52.5q28 -32 50 -85t22 -131v-19 q0 -10 -4 -21.5t-13 -21t-27 -9.5h-649z" />
<glyph unicode="&#x436;" horiz-adv-x="1436" d="M-20 0h148l416 419q26 29 48 58t22 65q0 42 -28 80.5t-56 65.5l-377 375h-143l454 -452q9 -10 23.5 -26.5t14.5 -34.5t-14.5 -36t-23.5 -28zM666 0h104v1063h-104v-1063zM823 542q0 -36 22 -65t48 -58l415 -419h149l-484 486q-10 10 -24 28t-14 36q0 17 14 33.5t24 27.5 l454 452h-142l-378 -375q-28 -28 -56 -66t-28 -80z" />
<glyph unicode="&#x437;" horiz-adv-x="967" d="M80 0h548q14 0 35 2t46.5 8t50.5 18t48 34q29 26 45 59.5t23 66t9 64t2 53.5q0 42 -9 91.5t-39 89.5q-23 28 -46 42t-42 18v6q34 10 56 28t34 34q28 41 34 92t6 87q0 48 -11 104.5t-56 100.5q-13 13 -58.5 39t-129.5 26h-526v-94h516q46 0 72 -12.5t40 -29.5 q29 -30 34.5 -70t5.5 -72q0 -10 -1 -28t-4.5 -38t-11.5 -41t-23 -36q-16 -18 -44.5 -31t-69.5 -13h-503v-94h489q28 0 60.5 -6t61.5 -34q38 -35 45.5 -78t7.5 -83q0 -10 -1.5 -31t-4.5 -44t-9.5 -47t-18.5 -41q-23 -30 -52.5 -38t-52.5 -8h-556v-94z" />
<glyph unicode="&#x438;" horiz-adv-x="1089" d="M100 98q0 -52 25.5 -81t71.5 -29q40 0 64 18t50 59l542 860q9 16 14.5 20.5t7.5 4.5q10 0 10 -8v-17v-925h105v954q0 11 -2 31t-11.5 40.5t-27.5 35.5t-52 15q-71 0 -110 -65l-548 -873q-14 -26 -22 -25q-10 0 -11 8.5t-1 16.5v925h-105v-965z" />
<glyph unicode="&#x439;" horiz-adv-x="1089" d="M100 98q0 -52 25.5 -81t71.5 -29q40 0 64 18t50 59l542 860q9 16 14.5 20.5t7.5 4.5q10 0 10 -8v-17v-925h105v954q0 11 -2 31t-11.5 40.5t-27.5 35.5t-52 15q-71 0 -110 -65l-548 -873q-14 -26 -22 -25q-10 0 -11 8.5t-1 16.5v925h-105v-965zM249 1345q12 -41 37 -85 t61 -74q44 -38 97.5 -51t107.5 -13t107 13t98 51q36 30 61 74t37 85h-120q-8 -25 -22 -49t-31 -38q-20 -17 -52 -28.5t-78 -11.5t-78 11.5t-53 28.5q-15 14 -29.5 38.5t-22.5 48.5h-120z" />
<glyph unicode="&#x43a;" horiz-adv-x="898" d="M100 0h105v1063h-105v-1063zM255 548q0 -25 14 -56.5t54 -70.5l447 -421h149l-519 490q-10 10 -21 27t-11 31q0 19 17 38.5t27 29.5l473 447h-142l-406 -377q-26 -24 -54 -62t-28 -76z" />
<glyph unicode="&#x43b;" horiz-adv-x="967" d="M-20 0h118l366 931q3 10 7 21t13 11q8 0 12 -10.5t8 -21.5l365 -931h119l-400 992q-24 58 -56 71t-48 13t-48 -13t-57 -71z" />
<glyph unicode="&#x43c;" horiz-adv-x="1360" d="M100 0h105v933q0 4 1 9.5t7 5.5q4 0 7.5 -7.5t5.5 -11.5l358 -864q16 -41 45.5 -59t50.5 -18q23 0 51.5 18t45.5 59l357 864q2 4 6 11.5t8 7.5q5 0 6.5 -5.5t1.5 -9.5v-933h104v965q0 111 -100 111q-42 0 -64 -18t-39 -54l-354 -855q-16 -36 -23 -36q-6 0 -21 36 l-356 855q-16 36 -38 54t-64 18q-100 0 -101 -111v-965z" />
<glyph unicode="&#x43d;" horiz-adv-x="1047" d="M100 0h105v502h638v-502h105v1063h-105v-467h-638v467h-105v-1063z" />
<glyph unicode="&#x43e;" horiz-adv-x="1172" d="M60 538q0 -172 40 -275.5t93 -153.5q44 -42 97 -66.5t107.5 -36.5t103.5 -15t85 -3t85 3t103.5 15t107.5 36.5t97 66.5q50 50 91.5 153.5t41.5 275.5q0 44 -4.5 99.5t-18 112.5t-40 112t-70.5 97q-40 39 -87 62t-98 35t-104.5 16t-103.5 4t-103.5 -4t-104.5 -16t-99 -35 t-86 -62q-44 -42 -70.5 -97t-40 -112t-18 -112.5t-4.5 -99.5zM172 528q0 35 1 82t9.5 96t25 95t49.5 82q30 34 71 53.5t86.5 29t89.5 12.5t82 3t82 -3t89.5 -12.5t86.5 -29t71 -53.5q33 -36 49.5 -82t25 -95t9.5 -96.5t1 -81.5q0 -32 -1 -76t-9.5 -91.5t-26 -94t-50.5 -82.5 q-32 -34 -71 -54.5t-83.5 -31t-88.5 -13.5t-84 -3t-84 3t-88.5 13.5t-83.5 31.5t-71 54q-35 36 -51.5 82.5t-25 94t-9.5 91.5t-1 76z" />
<glyph unicode="&#x43f;" horiz-adv-x="1042" d="M100 0h105v909q0 14 2 29.5t8 20.5q4 4 16 7t18 3h546q6 0 18 -3t16 -7q6 -5 8 -20.5t2 -29.5v-909h105v909q0 27 -3.5 57t-19.5 51q-10 14 -34 30t-75 16h-581q-50 0 -74.5 -15.5t-34.5 -30.5q-15 -22 -18.5 -52t-3.5 -56v-909z" />
<glyph unicode="&#x440;" horiz-adv-x="1027" d="M100 -341h105v341h301q128 0 220.5 32.5t156.5 126.5q58 88 71 187.5t13 201.5q0 48 -2 99.5t-12.5 102.5t-34 100.5t-63.5 91.5q-41 42 -85 66t-87 36.5t-81 15.5t-64 3h-269q-23 0 -56 -4.5t-62 -26.5q-12 -10 -31.5 -34.5t-19.5 -66.5v-1272zM205 94v823q0 10 3 19.5 t12 19.5q6 3 15.5 8t17.5 5h307q72 0 145.5 -34.5t111.5 -120.5q18 -40 28 -105t10 -175q0 -104 -12 -184t-48 -135q-40 -62 -107.5 -91.5t-139.5 -29.5h-343z" />
<glyph unicode="&#x441;" horiz-adv-x="954" d="M60 517q0 -118 16 -212t81 -171q46 -56 122 -95t190 -39h426v94h-374q-36 0 -81 5t-88 21t-81 48.5t-62 84.5q-10 22 -17.5 54t-11.5 67.5t-6 69t-2 60.5q0 19 1 52.5t4 69.5t6 70t10 57q25 96 101.5 156t205.5 60h371v94h-359q-127 0 -206.5 -35.5t-125.5 -81.5 q-42 -42 -66 -94.5t-35.5 -109t-15 -113.5t-3.5 -112z" />
<glyph unicode="&#x442;" horiz-adv-x="866" d="M-20 969h401v-969h105v969h401v94h-907v-94z" />
<glyph unicode="&#x443;" horiz-adv-x="996" d="M-20 1063l449 -1057l-160 -349h112l636 1406h-111l-420 -933l-394 933h-112z" />
<glyph unicode="&#x444;" horiz-adv-x="1436" d="M60 519q0 -44 3.5 -91t12 -95t27 -95t46.5 -89q36 -52 80 -82.5t89.5 -45.5t89.5 -18t80 -3h178v-341h104v341h180q36 0 80 3t89 18t89 45t81 83q56 84 72 183t16 187q0 165 -26 251.5t-49 122.5q-36 60 -83 94t-95 51t-92 21t-75 4h-187v342h-104v-342h-187 q-30 0 -73.5 -4t-92 -21t-95.5 -50.5t-84 -94.5q-22 -36 -48 -122.5t-26 -251.5zM172 508q0 88 12.5 183.5t62.5 165.5q38 53 98.5 82.5t133.5 29.5h187v-875h-182q-28 0 -60.5 3t-65.5 16t-66 38t-59 68q-40 64 -50.5 138t-10.5 151zM770 94v875h187q75 0 135 -29t98 -83 q50 -71 62 -166t12 -183q0 -77 -9.5 -151t-50.5 -138q-28 -43 -60 -68t-65 -38t-66.5 -16t-58.5 -3h-184z" />
<glyph unicode="&#x445;" horiz-adv-x="862" d="M-20 0h127l324 467l326 -467h126l-393 546l375 517h-122l-312 -439l-310 439h-123l377 -517z" />
<glyph unicode="&#x446;" horiz-adv-x="1059" d="M100 136q0 -15 5.5 -50.5t32.5 -57.5q25 -19 59 -23.5t56 -4.5h827v94h-138v969h-105v-969h-558q-13 0 -32 2t-28 13q-10 10 -12 29t-2 29v896h-105v-927z" />
<glyph unicode="&#x447;" horiz-adv-x="1023" d="M80 785q0 -58 6 -115.5t40 -97.5q45 -52 109 -62t116 -10h468v-500h104v1063h-104v-469h-484q-48 0 -79.5 14t-44.5 32q-20 24 -23.5 58.5t-3.5 61.5v303h-104v-278z" />
<glyph unicode="&#x448;" horiz-adv-x="1565" d="M100 138q0 -26 5.5 -55t26.5 -51q29 -26 67 -29t70 -3h1028q32 0 70 3t66 29q22 23 27 52t5 54v925h-104v-896q0 -14 -1.5 -28.5t-9.5 -23.5q-13 -20 -46 -21h-469v969h-105v-969h-469q-33 0 -46 21q-8 9 -9 23.5t-1 28.5v896h-105v-925z" />
<glyph unicode="&#x449;" horiz-adv-x="1582" d="M100 138q0 -26 5.5 -55t26.5 -51q29 -26 67 -29t70 -3h1334v94h-138v969h-104v-969h-526v969h-105v-969h-469q-33 0 -46 21q-8 9 -9 23.5t-1 28.5v896h-105v-925z" />
<glyph unicode="&#x44a;" horiz-adv-x="1077" d="M-20 969h133q11 0 24.5 -3t21.5 -12q4 -8 6 -21.5t2 -23.5v-787q0 -26 2.5 -52t23.5 -46q18 -17 42 -20.5t46 -3.5h462q54 0 104 6t92 46q26 26 42.5 61.5t24 72t9.5 71t2 59.5q0 52 -11.5 117t-61.5 113q-44 42 -95.5 52.5t-86.5 10.5h-492v339q0 15 -3.5 42t-23.5 48 q-14 14 -35.5 19.5t-38.5 5.5h-189v-94zM270 157v357h492q20 0 50.5 -7t56.5 -40q27 -34 32 -78t5 -71q0 -79 -10.5 -117t-24.5 -57q-24 -34 -53 -42t-56 -8h-441q-9 0 -22.5 1t-21.5 14q-4 8 -5.5 25t-1.5 23z" />
<glyph unicode="&#x44b;" horiz-adv-x="1275" d="M100 122q0 -26 3.5 -52t22.5 -46q18 -17 42.5 -20.5t46.5 -3.5h461q54 0 104.5 6t92.5 46q27 26 42.5 61.5t24 72t10.5 71t2 59.5q0 52 -12.5 117t-62.5 113q-44 42 -95.5 52.5t-84.5 10.5h-492v454h-105v-941zM205 157v357h492q19 0 49.5 -7t56.5 -40q26 -34 31 -78 t5 -71q0 -79 -10 -117t-24 -57q-25 -34 -54 -42t-54 -8h-442q-10 0 -23 1t-21 14q-4 6 -5 23t-1 25zM1072 0h104v1063h-104v-1063z" />
<glyph unicode="&#x44c;" horiz-adv-x="1011" d="M100 122q0 -26 3.5 -52t22.5 -46q18 -17 42.5 -20.5t46.5 -3.5h461q54 0 104.5 6t92.5 46q27 26 42.5 61.5t24 72t10.5 71t2 59.5q0 52 -12.5 117t-62.5 113q-44 42 -95.5 52.5t-84.5 10.5h-492v454h-105v-941zM205 157v357h492q19 0 49.5 -7t56.5 -40q26 -34 31 -78 t5 -71q0 -79 -10 -117t-24 -57q-25 -34 -54 -42t-54 -8h-442q-10 0 -23 1t-21 14q-4 6 -5 23t-1 25z" />
<glyph unicode="&#x44d;" horiz-adv-x="990" d="M60 0h402q42 0 90 3t96.5 15t94.5 39t86 75q60 77 81 183t21 241q0 80 -7 140.5t-21 106.5t-35 81t-47 64q-66 70 -142.5 92.5t-157.5 22.5h-447v-94h445q27 0 60 -3t67 -15t65.5 -37t54.5 -67q29 -46 42 -114.5t11 -123.5h-731v-95h731q0 -29 -3.5 -64.5t-7 -72 t-10.5 -69.5t-15 -55q-18 -50 -49 -81.5t-68.5 -48t-75.5 -23t-73 -6.5h-457v-94z" />
<glyph unicode="&#x44e;" horiz-adv-x="1456" d="M100 0h105v502h168q0 -35 3 -84t16.5 -103t39.5 -108t72 -98q44 -42 95.5 -66.5t101.5 -36.5t98 -15t86 -3q36 0 84 3t99.5 15t103.5 36.5t94 66.5q42 44 68.5 98t40.5 111t17.5 114.5t3.5 105.5q0 46 -3.5 101.5t-16.5 111.5t-39.5 110t-70.5 98q-44 43 -95 67 t-102.5 35t-99.5 13t-84 2q-38 0 -86 -2t-99 -13t-101.5 -35t-94.5 -67q-67 -64 -97 -157t-34 -206h-168v467h-105v-1063zM486 528q0 33 2 80t9 97t23 97t46 81q31 34 69.5 53.5t81.5 29t86.5 12.5t81.5 3t81 -3t86.5 -12.5t82.5 -29t69 -53.5q31 -34 46.5 -81t23 -97 t9.5 -97.5t2 -79.5q0 -30 -1 -74t-9.5 -92.5t-25.5 -95t-47 -82.5q-30 -34 -68 -54.5t-80.5 -31t-85.5 -13.5t-83 -3t-83 3t-85.5 13.5t-80.5 31.5t-68 54q-30 36 -47 82.5t-25 95t-9 92.5t-1 74z" />
<glyph unicode="&#x44f;" horiz-adv-x="1045" d="M60 0h141l403 383q15 16 21.5 34t6.5 35q0 40 -27 50t-53 10h-197q-37 0 -69.5 11t-57.5 55q-13 27 -19 66.5t-6 108.5q0 40 4 84t26 78q23 35 48.5 44.5t53.5 9.5h427q18 0 36.5 -1t30.5 -14q10 -12 11 -30t1 -31v-893h105v902q0 32 -4.5 67.5t-32.5 62.5 q-24 22 -57 26.5t-65 4.5h-450q-56 0 -102 -20t-74 -49q-46 -50 -58.5 -118t-12.5 -127q0 -54 8.5 -119.5t45.5 -119.5q44 -62 98.5 -77.5t106.5 -15.5h115q3 0 9 -0.5t6 -10.5q0 -6 -5 -11.5t-12 -13.5z" />
<glyph unicode="&#x451;" horiz-adv-x="1036" d="M60 528q0 -118 12 -217.5t75 -180.5q30 -40 66 -66t73 -40t73 -19t68 -5h523v94h-523q-52 0 -92 17t-69 43t-48 59.5t-27 65.5q-12 42 -16 106.5t-3 110.5h649q23 0 55.5 5t56.5 27q16 14 25 33t13 38t5 37.5t1 29.5q0 85 -21 144t-49 99.5t-56 62.5t-44 32 q-65 38 -140 48.5t-131 10.5q-80 0 -170.5 -16.5t-162.5 -77.5q-50 -42 -79.5 -95t-43 -111t-17 -118.5t-3.5 -116.5zM172 590q2 78 10.5 138.5t39.5 112.5q29 46 63 72t73.5 38t79 15t79.5 3q37 0 73 -2t72.5 -10.5t69 -27t61.5 -52.5q28 -32 50 -85t22 -131v-19 q0 -10 -4 -21.5t-13 -21t-27 -9.5h-649zM277 1241h112v164h-112v-164zM634 1241h113v164h-113v-164z" />
<glyph unicode="&#x452;" horiz-adv-x="1032" d="M-20 1206h160v-1206h105v969h399q44 0 88.5 -9.5t84.5 -53.5q16 -20 34 -59t18 -100v-436q0 -46 -8 -105t-18 -106q-16 -60 -37 -107t-49 -91q-41 -62 -92 -126.5t-99 -116.5h135q44 46 77.5 91t66.5 95q36 58 60 108.5t41 117.5q11 50 19 111t8 101v424q0 80 -17 153 t-75 128q-46 42 -106.5 58.5t-140.5 16.5h-389v143h309v94h-309v105h-105v-105h-160v-94z" />
<glyph unicode="&#x453;" horiz-adv-x="798" d="M0 0h104v893q0 10 1.5 29.5t11.5 31.5q11 15 44 15h638v94h-678q-29 0 -58 -8.5t-47 -41.5q-14 -22 -15 -50t-1 -52v-911zM226 1202l63 -78l247 201l-63 78z" />
<glyph unicode="&#x454;" horiz-adv-x="984" d="M60 556q0 -100 10 -172.5t25.5 -122.5t31 -80t30.5 -49q36 -48 83 -75t97 -39t98.5 -15t88.5 -3h401v94h-458q-61 0 -105 13.5t-75.5 35.5t-51.5 50.5t-32 59.5q-20 50 -30 125.5t-10 135.5h734v95h-728q0 53 12 122.5t38 115.5q24 42 56 67t65 37t66.5 15t59.5 3h445v94 h-447q-29 0 -65.5 -3t-77 -14.5t-81.5 -34.5t-75 -63q-60 -71 -82.5 -174.5t-22.5 -217.5z" />
<glyph unicode="&#x455;" horiz-adv-x="1011" d="M60 799q0 -44 12 -90.5t47 -86.5q7 -10 24.5 -25t45.5 -31t71 -32.5t104 -29.5l184 -42q58 -14 99 -24.5t71.5 -19t49.5 -19t31 -22.5q11 -11 25.5 -37.5t14.5 -72.5q0 -29 -6 -65.5t-21 -57.5q-15 -22 -46 -36t-78 -14h-610v-94h615q32 0 79 6t87 34q31 20 48.5 48.5 t28 58t13.5 61t3 59.5q0 51 -13.5 98t-63.5 87q-46 38 -116.5 58t-166.5 42l-192 44q-14 2 -39.5 9t-52.5 16t-52 21.5t-39 25.5q-31 31 -38 71t-7 68q0 22 5 60.5t34 65.5q26 26 63 31t55 5h552v94h-510q-76 0 -141 -13.5t-115 -78.5q-54 -68 -55 -172z" />
<glyph unicode="&#x456;" horiz-adv-x="312" d="M100 1256h113v149h-113v-149zM104 0h105v1063h-105v-1063z" />
<glyph unicode="&#x457;" horiz-adv-x="312" d="M0 1184h104v159h-104v-159zM104 0h105v1063h-105v-1063zM209 1184h104v159h-104v-159z" />
<glyph unicode="&#x458;" horiz-adv-x="517" d="M-20 -261v-97q29 -4 66 -4q40 0 82.5 6.5t85.5 21.5t79 43q40 32 64 68.5t36.5 73t16.5 71t4 60.5v1081h-105v-1061q0 -88 -21 -132t-62 -77q-38 -30 -92 -44t-154 -10zM305 1256h112v149h-112v-149z" />
<glyph unicode="&#x459;" horiz-adv-x="1655" d="M-20 0h114l568 952q12 22 24.5 27t20.5 5q11 0 24.5 -11.5t13.5 -28.5v-822q0 -26 3 -52t22 -46q18 -17 42.5 -20.5t46.5 -3.5h462q54 0 104 6t92 46q27 26 43 61.5t24 72t9.5 71t1.5 59.5q0 52 -11.5 117t-62.5 113q-44 42 -95 52.5t-85 10.5h-492v348q0 54 -38.5 86.5 t-101.5 32.5q-35 0 -75 -19t-78 -84zM849 128v29v357h492q44 0 69 -15t37 -32q10 -9 23 -43.5t13 -110.5q0 -37 -6 -87t-28 -82q-24 -34 -53 -42t-55 -8h-441q-12 0 -24.5 1t-20.5 14q-6 10 -6 19z" />
<glyph unicode="&#x45a;" horiz-adv-x="1721" d="M100 0h105v508h618v-386q0 -26 3 -52t23 -46q17 -17 41.5 -20.5t46.5 -3.5h450q54 0 104.5 6t92.5 46q26 26 42 61.5t24 71t10 69t2 55.5q0 52 -12 117.5t-62 113.5q-44 42 -95.5 52t-85.5 10h-480v461h-104v-461h-618v461h-105v-1063zM927 157v351h480q20 0 50.5 -7 t55.5 -39q27 -35 31.5 -79t4.5 -72q0 -73 -9.5 -109.5t-24.5 -57.5q-24 -34 -53 -42t-55 -8h-430q-10 0 -22.5 1t-21.5 14q-4 6 -5 23t-1 25z" />
<glyph unicode="&#x45b;" horiz-adv-x="1073" d="M-20 1206h160v-1206h105v969h399q44 0 89.5 -9.5t83.5 -53.5q37 -43 44.5 -98t7.5 -90v-718h104v707q0 80 -17 153t-75 128q-46 42 -106.5 58.5t-140.5 16.5h-389v143h309v94h-309v105h-105v-105h-160v-94z" />
<glyph unicode="&#x45c;" horiz-adv-x="898" d="M100 0h105v1063h-105v-1063zM255 548q0 -25 14 -56.5t54 -70.5l447 -421h149l-519 490q-10 10 -21 27t-11 31q0 19 17 38.5t27 29.5l473 447h-142l-406 -377q-26 -24 -54 -62t-28 -76zM295 1202l63 -78l246 201l-62 78z" />
<glyph unicode="&#x45e;" horiz-adv-x="1034" d="M0 1063l450 -1057l-159 -347h113l632 1400h-113l-417 -929l-393 933h-113zM215 1345q11 -41 36.5 -85t61.5 -74q44 -38 97.5 -51t106.5 -13q54 0 107.5 13t97.5 51q37 30 61.5 74t37.5 85h-120q-8 -25 -22.5 -49t-29.5 -38q-20 -17 -52.5 -28.5t-79.5 -11.5 q-46 0 -77.5 11.5t-52.5 28.5q-16 14 -30 38.5t-22 48.5h-120z" />
<glyph unicode="&#x45f;" horiz-adv-x="1047" d="M100 140q0 -22 3.5 -50t22.5 -52q25 -28 55 -33t58 -5h228v-353h113v353h228q29 0 59 5t54 33q20 25 23.5 53t3.5 49v923h-105v-919q0 -26 -3 -33t-5 -9q-6 -6 -17 -7t-15 -1h-558q-4 0 -15 1t-17 7q-2 2 -5 9.5t-3 32.5v919h-105v-923z" />
<glyph unicode="&#x490;" horiz-adv-x="1097" d="M140 0h109v1220q0 34 2 49.5t8 23.5q10 15 23 16t25 1h714q25 0 50 2t41 19q20 16 23 41.5t3 42.5v241h-108v-189q0 -22 -3.5 -33t-7.5 -17q-10 -10 -22.5 -11t-25.5 -1h-686q-50 0 -78.5 -13t-39.5 -29q-18 -22 -22.5 -53t-4.5 -60v-1250z" />
<glyph unicode="&#x491;" horiz-adv-x="810" d="M100 0h105v907q0 10 2 24.5t6 22.5q7 11 19.5 13t22.5 2h473q18 0 45.5 4t49.5 25q20 19 24 45.5t4 42.5v233h-104v-207v-16t-10 -18t-23 -12.5t-21 -2.5h-471q-22 0 -46.5 -4.5t-47.5 -28.5q-22 -23 -25 -46t-3 -51v-933z" />
<glyph unicode="&#x2000;" horiz-adv-x="882" />
<glyph unicode="&#x2001;" horiz-adv-x="1764" />
<glyph unicode="&#x2002;" horiz-adv-x="882" />
<glyph unicode="&#x2003;" horiz-adv-x="1764" />
<glyph unicode="&#x2004;" horiz-adv-x="588" />
<glyph unicode="&#x2005;" horiz-adv-x="441" />
<glyph unicode="&#x2006;" horiz-adv-x="294" />
<glyph unicode="&#x2007;" horiz-adv-x="294" />
<glyph unicode="&#x2008;" horiz-adv-x="220" />
<glyph unicode="&#x2009;" horiz-adv-x="352" />
<glyph unicode="&#x200a;" horiz-adv-x="98" />
<glyph unicode="&#x2010;" horiz-adv-x="802" d="M100 486h603v116h-603v-116z" />
<glyph unicode="&#x2011;" horiz-adv-x="802" d="M100 486h603v116h-603v-116z" />
<glyph unicode="&#x2012;" horiz-adv-x="802" d="M100 486h603v116h-603v-116z" />
<glyph unicode="&#x2013;" horiz-adv-x="1187" d="M100 486h988v116h-988v-116z" />
<glyph unicode="&#x2014;" horiz-adv-x="2287" d="M140 486h2007v116h-2007v-116z" />
<glyph unicode="&#x2018;" horiz-adv-x="400" d="M0 1345l211 -313l90 60l-211 313z" />
<glyph unicode="&#x2019;" horiz-adv-x="421" d="M60 1092l91 -60l211 313l-92 60z" />
<glyph unicode="&#x201a;" horiz-adv-x="400" d="M0 -113l90 -59l211 312l-90 61z" />
<glyph unicode="&#x201c;" horiz-adv-x="712" d="M60 1345l210 -313l92 60l-211 313zM351 1345l211 -313l91 60l-211 313z" />
<glyph unicode="&#x201d;" horiz-adv-x="712" d="M60 1092l91 -60l211 313l-92 60zM351 1092l91 -60l211 313l-91 60z" />
<glyph unicode="&#x201e;" horiz-adv-x="691" d="M0 -113l90 -59l211 312l-90 61zM291 -113l90 -59l211 312l-90 61z" />
<glyph unicode="&#x2026;" horiz-adv-x="963" d="M140 0h121v174h-121v-174zM421 0h121v174h-121v-174zM703 0h120v174h-120v-174z" />
<glyph unicode="&#x202f;" horiz-adv-x="352" />
<glyph unicode="&#x2039;" horiz-adv-x="579" d="M100 564q0 -33 9.5 -51.5t20.5 -37.5l263 -385l86 59l-248 359q-8 11 -15 25.5t-7 30.5q0 15 6.5 30t15.5 26l248 359l-86 59l-263 -385q-11 -18 -20.5 -37.5t-9.5 -51.5z" />
<glyph unicode="&#x203a;" horiz-adv-x="579" d="M100 149l86 -59l264 385q12 18 20.5 37.5t8.5 51.5t-8.5 51t-20.5 38l-264 385l-86 -59l249 -359q8 -11 15 -25.5t7 -30.5t-6.5 -30.5t-15.5 -25.5z" />
<glyph unicode="&#x205f;" horiz-adv-x="441" />
<glyph unicode="&#x2122;" horiz-adv-x="1806" d="M0 1319h321v-717h95v717h321v88h-737v-88zM795 602h94v706q0 16 6.5 19.5t10.5 3.5q5 0 11 -8.5t10 -16.5l225 -626q10 -30 34 -59t64 -29q41 0 65 29.5t33 58.5l226 626q4 8 10 16.5t11 8.5q4 0 10.5 -3t6.5 -20v-706h94v739q0 26 -10 40.5t-23 23t-26 10.5t-21 2 q-14 0 -31 -2t-35 -10.5t-34.5 -24t-26.5 -43.5l-229 -634q-4 -6 -9 -16.5t-11 -10.5q-5 0 -10 10.5t-10 16.5l-228 634q-4 10 -11 24t-21 25.5t-37.5 21t-57.5 9.5q-8 0 -21 -2t-26.5 -10.5t-23 -23t-9.5 -40.5v-739z" />
<glyph unicode="&#xe000;" horiz-adv-x="1063" d="M0 0v1063h1063v-1063h-1063z" />
</font>
</defs>
</svg>
